&title=666
&artist=Roughsketch
&first=0.66
&des=Rɑ́ːgnərøkk -wild for Revenge-
&wholebpm=666
&demo_seek=87
&demo_len=13.5
&des_5=Rɑ́ːgnərøkk -wild for Revenge-
&des_7=Ragna(改訂前)
&lv_5=14+
&lv_7=蔵
&inote_5=(666){1}
6bqq1[4:25]/2,2,2,2,2,2,2,2,
6qq1[4:25]/2,2,2,2,2,2,2,2,
{2}6qq1[4:25]/2,2,2,2,2,2,2,2,2,2,2,2,2,2,2,2,
{4}2,6,2,6,2,7,2,7,2,8,2,8,2,1,2,1,2,3,4,5,6,7,8,1,
{8}2,3,4,5,6,7,8,1,2,3,4,5,6,7,8,1,
{2}5b,5h[2:1],{6}4,3,2,1,,6,4,3,2,1,7,,4,3,2,1,,8,
{2}2b,2h[2:1],{6}5,6,7,8,,3,{4}7b-3[8:1],,,,1,5,{8}1,2,3,4,
{4}5b/6b,,7,7,4,4,5,5,2,2,4,4,1,1,8,8,3,3,5,5,4,4,7,7,
1h[2:1],,4h[2:1],,5h[2:1],,7,,1b/8b,,2,2,5,5,3,3,7,7,1,1,
{8}5,6,7,8,3,,3,,8,7,6,5,1,,1,2,3,4,8,,8,7,6,5,
{4}43,,28,,17,,6h[8:1]/5h[8:1],,7b/4b,,3,3,8,8,2,2,
{8}8,7,6,5,{4}1,1,5h[8:1],4h[8:1],6h[8:1],3h[8:1],
8,8,1,1,5,5,4,4,{3}7h,7h,7h,2h,2h,2h,
{4}1b/8b,,7,7,4,4,5,5,2,2,{8}8,7,6,5,{4}1,1h[2:1],,,
{1}2bqq3[4:4]/7bpp6[4:4],,4-8[8:1]/5-1[8:1],{8}2,,2,,8,7,6,5,
{2}3b/4b-8[8:1],3,7-5[8:1]/3,3,3/4-8[8:1],3,7-5[8:1]/3,3,
3/4-8[8:1],3,7-5[8:1]/3,3,3/4-8[8:1],3,7-5[8:1]/3,3,
6/2-4[8:1],6,6/5-1[8:1],6,6/2-4[8:1],6,{3}7h/5-1[8:1],7h,7h,{2}
8/2-4[8:1],8,8/5-1[8:1],8,8/2-4[8:1],8,8/5-1[8:1],8,
{4}2b/7b,36,45,,{2}2-4[8:1],7-5[8:1],
1-3[8:1],8-6[8:1],1-3[8:1],8-6[8:1],
1-4[8:1],8-5[8:1],1-4[8:1],8-5[8:1],
1-5[8:1],8-4[8:1],1-5[8:1],8-4[8:1],
2-4[8:1],1-5[8:1],8-4[8:1],7-5[8:1],
8-4[8:1],1-5[8:1],2-4[8:1],8,
{4}3h[2:1]/6h[2:1],,,2h[2:1]/7h[2:1],,,1-5[8:1]/8-4[8:1],,,,2b/7b,,,,,,
{8}18,27,36,45,,,,,{2}65,6,24,2,75,7,{4}1,8,2,7,3,6,4,5,
{1},4-1[8:1]/5-8[8:1],2b/7b,
{4}3,6,4,5,3,4,2,5,3,4,2,5,1,8,2,7,1,8,2,7,3,4,2,5,3,4,2,5,
4w8[8:1],,,,2b/6b,,,,
6,5,7,4,6,5,7,4,8,1,7,2,8,1,7,2,6h[2:1],,4h[2:1],,8h[2:1],,1,,
3h[2:1]/4h[2:1],,,4h[2:1]/5h[2:1],,,6h[3:4]/5,,
{6}8,1,2,3,4,5,{4}7,7,3h[3:4],,{6}1,8,7,6,5,4,{4}2,2,6h[3:4],,
{6}8,1,2,3,4,5,{4}7,7,3h[2:1],,
1,,45,,45,36,27,18,2h[2:1]/7h[2:1],,,,34,,45,,65,,18,,18,27,36,45,3h[2:1]/6h[2:1],,,,1b/8b,,,,
1/5^8[2:1],2,3,4,1b/5,6,7,8,1/5^8[2:1],2,3,4,1b/5,6,7,8,
1/5^8[2:1],2,3,4,1b/5,6,7,8,1/5^8[2:1],2,3,4,1b/5,6,7,8,
1/5^8[2:1],2,3,4,1b/5,6,7,8,1/5^8[2:1],2,3,4,1b/5,6,7,8,
1/5^8[2:1],2,3,4,1b/5,6,7,8,1/5^8[2:1],2,3,4,1b/5,,,,
8/4^1[2:1],7,6,5,4/8b,3,2,1,8/4^1[2:1],7,6,5,4/8b,3,2,1,
8/4^1[2:1],7,6,5,4/8b,3,2,1,8/4^1[2:1],7,6,5,4/8b,3,2,1,
8/4^1[2:1],7,6,5,4/8b,3,2,1,8/4^1[2:1],7,6,5,4/8b,3,2,1,
8/4^1[2:1],7,6,5,4/8b,3,2,1,8/4^1[2:1],7,6,5,4/8b,,,,
{1}6qq1[1:13]/1h[1:3],,,,2h[1:3],,,,3h[1:3],,,,4h[1:3],,,8,
{2}37,3,35,3,31,3,34,3,36,6,68,6,65,6,61,6,
{4}3,6,4,5,2,7,4,5,2,7,4,5,1,8,3,6,{1}4>5[2:3],,,4-8[8:1],
{2}1b/5b,15,{6}15,26,37,48,,26,{2}1b/5b,15,{6}15,26,37,48,,26,
{2}1b/5b,15,{6}15,26,37,48,,26,{2}1b/5b,26,37,,
8b/4b,84,{6}84,73,62,51,,73,{2}8b/4b,84,{6}84,73,62,51,,73,
{2}8b/4b,84,{6}84,73,62,51,,73,{2}8b/4b,37,26,,
{1}1b>1[4:23]/5b<5[4:23],,,,,,,,{4}4,5,4,5,3,6,3,6,2,7,2,7,1,8,1,8,
{12}1b/8b,2b/7b,3b/6b,{4}4b/5b,,,{1},,,
{2}2h[2:1],3h[2:1],4h[2:1],5h[2:1],6h[2:1],7h[2:1],{8}1,,8,,1,8,1,,
{4}2h[2:1]/7b,,4,,3,3,5,5,4-8[8:1],,7-4[8:1],,1-5[8:1],,6,,
7h[2:1]/4,,1,,8,8,3,3,4-7[8:1],,2-5[8:1],,8-4[8:1],,2,,
1h[2:1]/5,,8,,3,3,7,7,4-8[8:1],,6-1[8:1],,2-5[8:1],,7,,
6/4h[2:1],,1,,3,3,4,4,2-5[8:1],,6-1[8:1],,4-8[8:1],,7,,
{8}1b,2,3,4,{4}6,2,6,4,7,3,8-4[8:1],,2-5[8:1],,6-1[8:1],,3,,
4,7,4,5,3,6,2,7,1,1,8,8,{3}2h,2h,2h,{4}6,3,5,4,6h[2:1],,2,2,
8-4[8:1],,3-8[8:1],,5-1[8:1],,2,,38,,65,,34,,2z6[2:1]/7s3[2:1],,,,,,4,5,
{8}4,5,4,,{4}3b/6b,2,1,8,4,5,6,7,81,2,3,4,1,8,7,6,54,3,2,1,4,5,6,7,
{6}2,8,2,8,2,,7,1,7,1,7,,{4}2b,6,3,5,4,4,6,5,8,,
2,4,3,7,5,6,4,4,8,8,2,2,6,6,{6}3,5,3,5,3,,6,4,6,4,6,,
{4}1b,7,4,8,3,6,1,7,{6}2,1,2,1,2bq1[12:6]*>1[12:6],,{4},,,,
2,5,3,8,4,6,2,5,{6}8,7,8,7,8bp1[12:6]*<1[12:6],,{4},,,,
78,,6,5,7,4,8,,12,,3,4,2,5,1,,6,6,{8}1,2,3,4,{4}7,7,{8}4,3,2,1,
{1}5-1[8:1],5-1[8:1],
{4}5b,5,5,5,5,5,5,5,5,5,5,5,5,5,5,5,5,5,5,5,5,5,5,5,46,,78,,12,,35,,
4b,4,4,4,4,4,4,4,4,4,4,4,4,4,4,4,35,,3/5h[2:1],,
{6}8,1,2,3,,7,1,2,3,4,,8,2,3,4,5,,1,{12}2b/8b,3b/7b,4b/6b,
{1}5b,,,,E
&inote_7=(666){1}
6bqq1[4:25]/2,2,2,2,2,2,2,2,
6qq1[4:25]/2,2,2,2,2,2,2,2,
{2}6qq1[4:25]/2,2,2,2,2,2,2,2,2,2,2,2,2,2,2,2,
{4}2,6,2,6,2,7,2,7,2,8,2,8,2,1,2,1,2,3,4,5,6,7,8,1,
{8}2,3,4,5,6,7,8,1,2,3,4,5,6,7,8,1,
{2}5b,5h[2:1],{6}4,3,2,1,,6,4,3,2,1,7,,4,3,2,1,,8,
{2}2b,2h[2:1],{6}5,6,7,8,,3,{4}7b-3[4:1],,,,1,5,{8}1,2,3,4,
{4}5b/6b,,7,7,4,4,5,5,2,2,4,4,1,1,8,8,3,3,5,5,4,4,7,7,
18,,23,,45,,67,,1b/8b,,2,2,5,5,3,3,7,7,1,1,
{8}5,6,7,8,3,,3,,8,7,6,5,1,,1,2,3,4,8,,8,7,6,5,
{4}43,,21,,87,,6h[4:1]/5h[4:1],,7b/4b,,3,3,8,8,2,2,
{8}8,7,6,5,{4}1,1,5h[4:1],4h[4:1],6h[4:1],3h[4:1],
8,8,1,1,5,5,46,,{3}7,7,7,2,2,2,
{4}1b/8b,,7,7,5,5,4,4,2,2,{8}8,7,6,5,{4}1,1h[2:1],,8,
{1}2bqq3[4:5]/7bpp6[4:5],,4-8[4:1]/5-1[4:1],{8}2,,2,,8,7,6,5,
{2}3b/4b-8[4:1],3,7-5[4:1]/3,3,3/4-8[4:1],3,7-5[4:1]/3,3,
3/4-8[4:1],3,7-5[4:1]/3,3,3/4-8[4:1],3,7-5[4:1]/3,3,
6/2-4[4:1],6,6/5-1[4:1],6,6/2-4[4:1],6,{3}7/5-1[4:1],7,7,{2}
8/2-4[4:1],8,8/5-1[4:1],8,8/2-4[4:1],8,8/5-1[4:1],8,
{4}2b/7b,36,45,,{2}2-4[4:1],7-5[4:1],
1-3[4:1],8-6[4:1],1-3[4:1],8-6[4:1],
1-4[4:1],8-5[4:1],1-4[4:1],8-5[4:1],
1-5[4:1],8-4[4:1],1-5[4:1],8-4[4:1],
2-4[4:1],1-5[4:1],8-4[4:1],7-5[4:1],
8-4[4:1],1-5[4:1],2-4[4:1],1,
{4}3h[2:1]/6h[2:1],,,2h[2:1]/7h[2:1],,,1-5[4:1]/8-4[4:1],,,,2b/7b,,,,,,
{8}18,27,36,45,,,,,{2}65,6,24,2,75,7,{4}1,8,2,7,3,6,4,5,
{1},4-1[4:1]/5-8[4:1],2b/7b,
{4}3,6,4,5,3,4,2,5,3,4,2,5,1,8,2,7,1,8,2,7,3,4,2,5,3,4,2,5,
4-1[4:1]*-8[4:1],,,,2b/7b,,,,
6,5,7,4,6,5,7,4,8,1,7,2,8,1,7,2,34,,56,,78,,12,,
3h[2:1]/4h[2:1],,,4h[2:1]/5h[2:1],,,6h[1:1]/5,,
{6}8,1,2,3,4,5,{4}7,4,8,3h[4:3],{6}1,8,7,6,5,4,{4}2,5,1,6h[4:3],
{6}8,1,2,3,4,5,{4}7,4,8,3,
12,,45,,45,36,27,18,2/7h[2:1],,5,,2h[2:1]/7,,4,,36,,18,,18,27,36,45,36,,18,,3b/6b,,,,
1/5^8[2:1],2,3,4,1b/5,6,7,8,1/5^8[2:1],2,3,4,1b/5,6,7,8,
1/5^8[2:1],2,3,4,1b/5,6,7,8,1/5^8[2:1],2,3,4,1b/5,6,7,8,
1/5^8[2:1],2,3,4,1b/5,6,7,8,1/5^8[2:1],2,3,4,1b/5,6,7,8,
1/5^8[2:1],2,3,4,1b/5,6,7,8,1/5^8[2:1],2,3,4,1b/5,,,,
8/4^1[2:1],7,6,5,4/8b,3,2,1,8/4^1[2:1],7,6,5,4/8b,3,2,1,
8/4^1[2:1],7,6,5,4/8b,3,2,1,8/4^1[2:1],7,6,5,4/8b,3,2,1,
8/4^1[2:1],7,6,5,4/8b,3,2,1,8/4^1[2:1],7,6,5,4/8b,3,2,1,
8/4^1[2:1],7,6,5,4/8b,3,2,1,8/4^1[2:1],7,6,5,4/8b,,,,
{1}6qq1[1:13]/1h[1:3],,,,2h[1:3],,,,3h[1:3],,,,4h[1:3],,,8,
{2}37,3,35,3,31,3,34,3,36,6,68,6,65,6,61,6,
{4}3,6,4,5,2,7,4,5,2,7,4,5,1,8,3,6,{1}4>5[2:3],,,4-8[4:1],
{2}1b/5b,15,{6}15,26,37,48,,26,{2}1b/5b,15,{6}15,26,37,48,,26,
{2}1b/5b,15,{6}15,26,37,48,,26,{2}1b/5b,26,37,,
8b/4b,84,{6}84,73,62,51,,73,{2}8b/4b,84,{6}84,73,62,51,,73,
{2}8b/4b,84,{6}84,73,62,51,,73,{2}8b/4b,37,26,,
{1}1b>1[4:23]/5b<5[4:23],,,,,,,,{4}4,5,4,5,3,6,3,6,2,7,2,7,1,8,1,8,
{12}1b/8b,2b/7b,3b/6b,{4}4b/5b,,,{1},,,
{2}2h[2:1],3h[2:1],4h[2:1],5h[2:1],6h[2:1],7h[2:1],{8}1,,8,,1,8,1,8,
{4}2h[2:1]/7b,,4,,3,3,5,5,4-8[4:1],,7-4[4:1],,1-5[4:1],,6,,
7h[2:1]/4,,1,,8,8,3,3,4-7[4:1],,2-5[4:1],,8-4[4:1],,2,2,
1h[2:1]/5,,8,,3,3,7,7,4-8[4:1],,6-1[4:1],,2-5[4:1],,7,,
6/4h[2:1],,1,,3,3,4,4,2-5[4:1],,6-1[4:1],,4-8[4:1],,7,,
{8}1b,2,3,4,{4}6,2,6,4,7,3,8-4[4:1],,2-5[4:1],,6-1[4:1],,3,,
4,7,4,5,3,6,2,7,1,1,8,8,{3}2,2,2,{4}6,3,5,4,36,,78,78,
16,,34,,28,,56,,4-8[4:1],,6-1[4:1],,2-5[4:1],,8<1[1:1],,,,,,4,5,
{8}4,5,4,5,{4}3b/6b,2,1,8,4,5,6,7,81,2,3,4,1,8,7,6,54,3,2,1,4,5,6,7,
{6}2,1,2,1,2,,7,8,7,8,7,,{4}2b,7,4,6,3,5,2,7,18,,
2,4,3,7,5,6,3,3,1,1,7,7,5,5,{6}3,4,3,4,3,,6,5,6,5,6,,
{4}1b,7,4,8,3,6,1,7,{6}2,1,2,1,2bq1[12:7]*>1[12:7],,{4},,,,
2,5,3,8,4,6,2,5,{6}8,7,8,7,8bp1[12:7]*<1[12:7],,{4},,,,
78,,6,5,7,4,8,,12,,3,4,2,5,1,,6,6,{8}1,2,3,4,{4}7,7,{8}4,3,2,1,
{1}5-1[4:1],5-1[4:1],
{4}5b,5,5,5,5,5,5,5,5,5,5,5,5,5,5,5,5,5,5,5,5,5,5,5,46,,78,,12,,35,,
4b,4,4,4,4,4,4,4,4,4,4,4,4,4,4,4,35,,3/5h[2:1],,
{6}8,1,2,3,,7,1,2,3,4,,8,2,3,4,5,,1,{12}2b/8b,3b/7b,4b/6b,
{1}5b,,,,E
