&title=輪廻玲々
&artist=suzu
&first=0
&des=真 Dead Horse vs C2U
&clock_count=4
&lv_5=14+
&inote_5=(188)
{1},
{16},
{128},
{8}
18,
{32}
A2/A7,B2/B7,C,B6/B3,A3/A6,,,,
{8}
45,
4bx-1[8:1]/5bx-8b[8:1],4xb/5xb,,,
{8}
2,,,3,,,4h[4:1],,
5`A3,,,6,,,7h[4:1],,
4`A6,,,2,,,3h[4:1],,
7`A4,,,6,,,5h[4:1],
{16}
4,3,2`A6,,
{8},,
3,,,4h[4:1],,
5`A3,,,6,,,7h[4:1],
{16}
2,3,4`A6,,
{8},,
3,,,7h[4:1],,
{16}
2,3,4,5,
8,7,6,5,
1,2,3,4,
7,6,5,4,
{8}
3x<6[8:1],2,1,
8x>3[8:1],7,6,
5b,,
5x<8[8:1],4,3,
2x>5[8:1],1,8,
7b,,
7x<4[8:1],8,1,
2x<7[8:1],3,4,
5b,,
5x>2[8:1],6,7,
8x<5[8:1],1,2,
3b,,
{16}
28,37,46,5b,,,
4,6,4,6,4,,
3,7,3,7,
2,1,2,1,2,,
7,8,7,8,7,,
1,2,3,4,
6,5,6,5,6,,
3,4,3,4,3,,
5,6,7,8,
2,6,3,5,4,,
7,3,6,4,5,,
3,2,1,8,
{8}
6xh[8:5]/7xq3[8:3],,,,,,,
2h[4:3]/1<4[2:1],,,,,,,,
3-5-8[2:1]/4h[4:3],,,,,,,,
1s5[2:1],,,,,,,,
{16}
3,4,2h[8:5]/5p8[8:3],,
{8},,,,,,
1h[8:1]/7h[8:1],,8h[8:1]/6h[8:1],,7h[8:1]/5h[8:1],,,
{16}
5,6,7h[4:3]/4<1[2:1],,
{8},,,,,,,
2h[8:6],,
5,6,7,8,7,6,5,
{8}
2-4[8:1],,2-8[8:1]/5,,2-5[8:1]/5,,2,6,
3-8[8:1],,3-5[8:1]/7,,3-1[8:1]/7,,3,6,
7-5[8:1],,7-1[8:1]/4,,7-4[8:1]/4,,7,3,
6-1[8:1],,6-4[8:1]/2,,6/2,2,
{16}
3,5,3,5,
{8}
3<1[8:3]/6h[8:5],,,,,,,
7h[8:3]/2-5[8:1],,,,,
46,4-1[8:1]/6-1[8:1],,
Cf,,,
2x,8x,3,7,4,6,
{16}
2x,3,4,5,3x,4,5,6,
4x,5,6,7,5x,6,7,8,
{16}
2b,,2,,36,,
5,4,6,4,5,,3,6,4,,
7b,,7,,36,,
4,5,3,5,4,,6,3,5,,
3b,,3,,27,,
8,1,7,1,8,,2,7,1,,
{16}
8x,7,6,5,7x,6,5,4,
6x,5,4,3,5x,4,3,2,
{16}
7b,,7,,36,,
4,5,3,5,4,,6,3,5,,
2b,,2,,36,,
5,4,6,4,5,,3,6,4,,
6b,,6,,27,,
1,8,2,8,1,,7,2,8,,
{16}
1x,2,3,4,2x,3,4,5,
3x,4,5,6,4x,5,6,7,
{16}
2b,,2,,37,,
5,6,4,6,5,,6,4,5,,
7b,,7,,26,,
4,3,5,3,4,,3,5,4,,
2b,,2,,37,,
1,8,2,8,1,,8,2,1,,
{16}
2x,3,4,5,8x,7,6,5,
8,6,1,7,2,8,3,1,
{8}
2-6[8:1],2,8-4[8:1],8,
1-5[8:1],1,7-3[8:1],7,
2-5[8:1],2,8-5[8:1],8,
1-4[8:1],1,7-4[8:1],7,
2-5[8:1],2,8-3[8:1],8,
6-1[8:1],6,4,4,
{16}
2,4,3,5,4,6,5,7,
4,8,2,6,3,8,1,6,
{1}
2x>8[1:1]/7x<1[1:1],
{8},,,,
2,3,4,5h[8:3],,,A4,,6,,
4,5,,,6,,7,,8,,
12,,,2,,3,,4h[8:3],,,A3,,
5,6,,3,,,6,,2,1,,
7h[8:3],,,
4,,3,,2,,
{8}
1q4[8:7],,,6,,5,,4bp2[8:7],,,,,
8,7,6,5q8[8:7],,,,,,,8p6[8:6],1,,,2,,3,,4,,
4h[8:1],5,3h[8:1],4,2h[8:1],3,2,4,
6h[8:1],4,5h[8:1],4,6h[8:1],4,7,4,
7,
{32}
6x/E5,B4,B3,E3,5x,,,,6x/E5,B4,B3,E3,5x,,,,
6x/E5,B4,B3,E3,5x,,,,6x/E5,B4,B3,E3,5x,,,,
{8}
7,4,6,
{16}
2,4,,5,7,,18,,
2h[1:1],,,,,,,,
{4},,
{16}
1x,8,7,6,5,4,1x,8,7,6,5,4,
8x,7,6,5,
8x,1,2,3,4,5,8x,1,2,3,4,5,
1x,2,3,4,
{24}
8x,7,6,2x,3,4,
7x,6,5,1x,2,3,
8x,7,6,2x,3,4,
5w1[8:1],,,,,,
{8}
5b,,,3-5[8:1]/7-5[8:1],,3v8-5[8:3]/7v2-5[8:3],,3b/7b,,,,,
4,6,2,1h[4:1]/8h[2:1],,,2,3,
{16}
4,6,4,,3h[8:2],,7h[8:1],,,,
2,8,1,7,
8,6,5,7,
4,6,3,5,
2qq5[8:4],4,2,,,,,,
7-5[8:1],,,,7,,,,
3pp8[8:4],,,,3,,,,,,,,
7,,6,,5>1[8:3],,,,,,1<5[8:3],,,,
4,,5-2[8:2],,,,3h[4:1],,,,,,
3,,1,,2,2,8,8,1,1,7,7,
{16}
2x,3,4,6x,5,4,
2x,3,4,6x,5,4,
2x,3,4,
8x,7,6,5,
2x,3,4,5,
7x,6,5,4<7[8:1]/8>3[8:1],
,,,4b/8b,,,,
{8}
2h[8:1],6h[8:1],1h[8:1],5h[8:1],3h[8:1],4h[8:1],,
{16}
3,4,3,4,1,8,1,8,
5,6,5,6,5,,47,,83,,
{8}
12,12,38,38,
{16}
7,6,5,,
{8}
34,34,25,25,16,16,
{16}
2,3,4,,
{32}
6x/E5,B4,B3,E3,5x,,,,6x/E5,B4,B3,E3,5x,,,,
6x/E5,B4,B3,E3,5x,,,,6x/E5,B4,B3,E3,5x,,,,
{16}
6x,,
4x,3,2,1,8,7,6,5,
4x/8x,1,2,3,4,5,6,7,
{16}
1,8,1,8,2h[8:1],,8,1,8,1,7h[8:1],,
2,3,4,,
5,4,5,4,6h[8:1],,4,5,4,5,3h[8:1],,
5,6,7,,
2,1,2,1,3h[8:1],,7,8,7,8,6h[8:1],,
8,1,2,,
3,4,3,4,2h[8:1],,6,5,6,5,7h[8:1],,
5,4,3,,
2,1,2,1,3,3,
1,2,1,2,8,8,
1,1,7,7,
8,7,8,7,1,1,
7,8,7,8,6,6,
1,1,7,7,
8xh[4:1]/2,3,4,5,6,,
7xh[4:1]/5,4,3,2,1,,
2xh[4:1]/8,7,6,5,4,,
1xh[4:1]/3,4,5,6,7,,
1b,,7b,,
3b,,5b,,
{16}
2b,5,4,5,3,6,5,6,
3,4,2,5,1,7,3,,
7b,4,5,4,6,3,4,3,
6,5,7,4,8,2,6,,
2b,5,4,5,1,6,5,6,
8,7,1,6,2,4,8,,
1bx,2,3,4,5,6,
8bx,7,6,5,4,3,
1bx,2,3,4,
{8}
5b-1[8:1],,57,7b-3[8:1],,72,1b,,
4b-8[8:1],,42,2b-6[8:1],,27,8b,,
{16}
7h[8:1]/4b,,6,5,47,,3h[8:1]/7b,,5,6,73,,
8h[8:1]/4b,,2,3,48,,5h[8:1]/8b,,2,1,85,,
5,4,3,2,8,7,6,5,
2bx/4,1,8,7,6,5,
2bx/4,1,8,7,6,5,
2bx/4,1,8,7,
8bx/6,1,2,3,4,5,
8bx/6,1,2,3,4,5,
8bx/6,1,2,3,
{1}
4qq8b[4:5]/8qq4[4:5],,
{8}
3,2,7,6,4,3,6,5,
3h[8:1],1h[8:1],8h[8:1],6h[8:1],
5h[8:1],4h[8:1],2h[8:1],7-3b[0.16##0.16],
E
