&title=黒塗り世界宛て書簡
&artist=フロクロ/重音テト
&first=1.4
&des=███████████
&lv_5=13+
&inote_5=(185)
{8}
35,,34,,2,2,6,5h[16:6],,4,4,,56,,48,,37,,36,,3,4,,
{4}5h[16:2],5h[16:2],5h[16:2],5h[16:2],5h[16:2],5h[16:2],
{8}5,4-2[8:1]*-6[8:1],3,,,
7>1[8:1],,2,,3,1,4,5-7[8:1],,3,4,5-3[8:1],8,5,7,6,
2h[16:4],,4h[16:4],,3,5,4,7-3[8:1],,5,2,1h[16:1],1s5[4:1],4,6,,
7h[16:4],,6h[16:4],,8,5,6,4-2[8:1],,4,5,7,6-4[8:1],1,6,3,2h[16:4],,4h[16:4],,3,5,4,8q6[16:8],,,,,,,7-2[8:1],,4bh[16:12],,,,,,
3,4,7,7,5,6,3,3,4,2,5,4h[16:6],6h[16:4],,,3/E8,,5/E3,,E6,A4,C,A2,,7-1[8:1]/A3,,4bh[16:4],,,4,7,7,3,4,1,1>4[8:1],,5,6h[16:4],,5,6,1,8h[16:6],2h[16:4],,,6/E2,,5-1[8:1]/B7,,4,3,2h[16:1],2z6[12:3],7,5,,,4,5,6,3,3,4,2,5,6V84[24:5],,3,5bh[16:6],,,,5,7,3,3,4<6[8:1],2,4,,,E3,E8,E2,E7,{32}D4,A4,D5,A5,{8}7-1[8:1],6x,4bh[16:4],,,4,5,5h[16:4],,3,4<7[8:1],2,4,,1>4[8:1],8,1,,6h[16:2],,5h[16:2]/7h[16:2],,6h[16:2]/1h[16:2],,8h[16:2]/3h[16:2],,1h[16:2]/2h[16:2],,4h[16:2]/3h[16:2],,4/5s1[4:1],,,,2,,3h[16:8],,,,4V28[12:4],,5,,6h[16:8],,,,7-5[8:1],,7-1[8:1],,2h[16:8],,,,1h[16:4],,3,E6,E5,E7/D7,E2/D2,E8/D8,E3/D3,C,4,,35,{16}4,6,5V31[16:4],,,,8,,,,7h[16:4],,,,8,,6,1,6-8[8:1],1,6-4[8:1],,,,,,{8}1,1,2,2,3h[16:2],4h[16:2],5h[16:2],6-4[8:1],7,8V62[12:3],,3,1s5[4:1],,4,,
7,7,6,6,5-3[8:1],4-6[8:1],,,8,8h[16:4],,1,6,4x,4,7,6>4[8:1],,6h[16:4],,,3/E8,,5/E3,,E6,A4,C,A3,8,E2,6,C,5,4,4,7-1[8:1],5,7,4,4-2[8:1],8,4,7,7-5[8:1],1,7,8,8h[16:8],4,4h[16:4],,,1/E6,,8-4[8:1]/B3,,1,3,2h[16:1],2z6[12:3],5,6,7-1[8:1],,5hb[16:2],,5,2,3,5V74-8[16:7],4,{12}2bh[16:8],,,,,,,,37,,37,,
{8}1-5[8:1],1,6,7,8-6[8:1],8-2[8:1],8-4[8:1],,,B2,A5,A3,D7,{32}D4,A4,A5,D6,{8}C,E1,2,2,4,4,3,3,6,6,5>2[8:1],74,,,8<5[8:1],17,,,3h[16:2],,2h[16:2]/4h[16:2],,5/1s5[4:1],,,,7h[16:8],,,,6,,6-8[7:1],,4h[16:8],,,,3,,3-5[7:1],,2h[16:8],,,,5,,5h[16:4],,3,E8,E1,E7/D7,E4/D4,E6/D6,E3/D3,C,
1qq2[12:6],,,,,,4pp6[8:1],,4pp2[12:6],,,,,,8<5[8:1],,8<2[12:5],,,,,,7,6,5/B8,,2/B4/E4,,4/B8/E1/B1,,7/B5/E6/E5/A5,
2b-4[9:1],5,2,8b-6[9:1],5,8,{24}4b-8[8:1],3,2,,,,{8}4,1,2b-6[8:1],7,2,8,{32}B7,E7,E2,B1,C,,,,{16}4b>1[8:1],,6,,4,,8,,7b<4[8:1],,1,,7,,3,,2,,8b,,{24}B1,B2,E3,B5,B6,E7,D4,A4,D5,D8/A8/D1,,,,,,{8}C,
7b-4[8:1],,2,1b-5[8:1],8,6b>3[8:1],,4,2,8b,{32}E7,B7,B1,E2,C,,,,{8}4,6,75,8,
2b-5[8:1],,6,7,8b-4[8:1],1,5,3,2,5bV71[12:3],,1V35[12:3],3,5-7[16:2],,,2bV48[12:3],,2,8,7,5bV73[12:3],1,5,2b-8[8:1],,2,4,6bV84[12:3],,5,3,2,
1b-5[9:1],,5,8b-6[8:1],,6,2b-4[9:1],,
4,8,7,7,5,64,35,8,
{24}
1b-7[9:1],2,,6,,,1,,,5,,,
1b-6[8:1],2,3,7,,,1,,,5,,,
1b-5[8:1],2,3,4,,,
{8}
1-4[8:1]*-3[8:1],,1-6[8:1]*-7[8:1],,1pp4[12:9],,,,,,,,8-2[9:1],,7-3[8:1],,6-4[9:1],,1s5[4:1],,,,
7h[16:4],,6h[16:4],,8,5,64,3h[16:4],,5,3,4,2,B4,1,C,8h[16:4],,7,,7,5,6,
2-6[8:1],,4,7,8h[16:1],8z4[4:1],5,3,,
2h[16:4],,3h[16:4],,1,4,35,6h[16:4],,4,6,5,7,3,8,2,1h[16:4],,2,,2,4,3,8h[16:4],,
{32}D6,,,,,,,A3,E3,,,,,B7,B8,E1,,,,,{8}2,,
34,,34,,2,4,3,5h[16:4],,4,6,5,7,B5,8,B1,
7,,78,,7,3,4,1>4[8:1],,5,6,7h[16:1],7s3[4:1],5,4,,
2x,,2,,2,3,4,5h[16:4],,4,5,6,7,B5,8,B1,7,,78,,7,5h,6h,1h[16:4],,
{32}D6,,,,,,,A3,E3,,,,,B7,B8,B1,,,,,{8}2x-4-1-5-8-6[16:69],,2h[16:69],
