&title=燐寸と緞帳 feat. 綜花
&artist=Juka_Box
&first=0.04
&des=dissipae
&des_5=
&lv_5=14
&inote_5=(152){4},{16},,,,,,,,,,,,6,
3,{8}6h[4:1],{16},,1,8,{4}2h[4:1],{16}4,2,4,2,
{2}4<2[2:1],3h[2:1],
{8}7,6>3[8:1],,8,{4}1-5[8:1],{8}4,4h[8:3],
,,{4}3-8[8:1],{2}6h[4:1],
{16}3,4,{8}3h[8:1],{16},,8,1,{4}7h[4:1],{16}5,7,5,7,
{2}5>4>3>2<1<8<7[2:1],6h[2:1],
{16}3h[16:3],,,1h[16:3],,,{8}8,{16}6h[16:3],,,4h[16:3],,,{8}3,
2/4h[8:1],{16}3,5,,5,{8}4,{16}4,6h[16:5],{1},{4},,{16},,,5,
4,5,{2}4,
{4}8/7h[4:1],{8}5,4/6,3<6[4:1],,,1h[4:1],
,5h[4:1],,2<5[16:3],{2}4h[2:1],
{8}8,8,8h[8:1],{16}5,5,{4}6V47[16:3],{8}8,2-5-1[4:1],
,4,{4}8-4[8:1],{2}8xh[2:1],
{8}3,,,3,4/2h[8:3],,,6V47[16:3],
,,,8>5[4:1],{2}6h[4:1],
{8}7/1h[8:3],{16},,,,4,4,{4}3V52[16:3],{8}1,7-4-8[4:1],
,5,{4}1-5[8:1],{2}1xh[2:1],
{16}6,5,6,5,{8}6,{16}7,8,,6,{8}5,7,7h[8:3],
1,1,1,{16}3,4,2,5,{8}1,7/8,6/5,
{16}3,4,3,4,{8}3,{16}2,1,,3,{8}4,2,2h[8:1],
{16}8,8,5,6,{8}4h[8:1],{16}1,2,8,1,{8}7h[4:1],8,5,
{16}6,6,4,5,{8}3h[8:1],{16}5,2,,2,{8}6,{4}6h[8:1],
{16}3,3,5,4,{8}6h[8:1],{16}4,7,,7,{8}3,3h[8:1],6,
{48}2b,3x,4x>5[24:17],C,{1},{4},,,{16},,{24},{8}6/4,
4/6,3/7,3/7,8/3,3/8,3/1,3/1,
{1}3h[4:3]/2b-8-3-7-4-6[2:1],
{8}8/2-5[12:1],7,2,6,3-8[12:1]*-7[12:1],{16}4,5,{4}3,
{8}7-4[12:1],{16}2,2,{8}7,3,{16}6-1[12:1]*v3[12:1],5,{8}7,{4}6,
{8}8-3[12:1],1,8,1,2-5[12:1]/4-8[12:1],1,{4}2/4,
{8}4-8[8:1],{16}5,6,{8}4,6,{16}6,8,6,8,7,5,7,5,
{8}8-5[12:1],4,8-3[12:1],3,{4}8/4-7[12:1]*-8[12:1],A4/D5/E4,
{16}1>4[12:1],8,7,6,{8}5/1,{16}5,6,7/4q8[8:1],8,1,2,,1h[16:3],,,2,
,,8/7h[16:3],,,2,5-8[12:1],4,6,3h[8:1],5,,1,,1,
7,8,6,1,{8}5h[8:1],{16}4,5,3-8[8:1],4,{8}2h[8:3],,,1,
{16}1/3h[8:1],8,7,6,2/5<3[4:1],1,{8}8,2,{4}2h[8:1],
{16}4,5,3,6,{8}2,{16}1,2<5[16:3],8,,,7h[16:5],,,,,1,
6,1,6,1,4,1,4,2,7,2,7,2,5,2,5,
{8}2h[16:3],{16}1,8h[8:1],,5,{8}4h[8:1],{16}6,7h[8:1],5,4,3,2,1,8,
{4}7h[8:3],{8}6,{16}6,8,7,1,{8}8h[8:1],3,3h[8:1],
{4}2h[8:3],{8}3,{16}3,1,2,8,{8}1h[8:1],6,6,
{16}4/6h[8:1],2,8,7,5,4,6,5,4h[8:1],7,5,2,4,7,1,3,
{8}2/5,3/7,2/1,8/5,6/4,2/5,7/3,{24}2,1,2h[8:1],
,,7,8,{12}7h[12:1],{24}2,1,{12}2h[12:1],{24}7,8,{8}7h[8:1],1bs5[4:1],,,4h[4:1],
{16},,,,2,2,2,4,4,4,3,1,,1,
{8}3,{16}4,8,5,7,{8}6h[16:5],{16},,,7,{8}5-7v2[16:3],8h[8:3],
{16},,,,,,7,6,2,8/3,1,2,3,1,,1,
3,,,8,{8}4/8,{16}5,7h,1,5h[8:1],,4,6h,8,{8}4h[8:3],
,,3,{16}7,7,7,5,5,5,6,8,,8,
{8}6,{16}5,1,4,2,{8}3h[16:5],{16},,,2,{8}4-2v7[16:3],1h[8:3],
,,,6h[8:1]/8h[8:1],{16},3h[8:1]/1h[8:1],,,8,5,,1,
4h[8:1],,,3h[16:1]/2h[16:1],,1/4,{8}7h[8:1]/6h[8:1],{16},5/8,,1,{8}4,{16}8,5bh[16:5],
,,1,8,7,6,{8}5h[4:1]/8-4[12:1],,8,7,{16}7,6,
7,6,8,5,{8}8,4h[4:1]/1-5[12:1],,1,2,{16}2,3,
2,3,1,4,{8}1,5h[8:5]/8V24[8:1],,8,{16},,7,8,
1,2,8,7,6/5h[4:1],7,8,1,2,3,4,5,3/6h[4:1],2,1,8,
7,6,5,4,{8}3,3h[4:1]/1<7-4[8:1],,1,{16},,2,3,
2,3,1,4,1,4,2/5,3,4/8,5,6,7,8/6,1,7/2,6,
5,4,3/7,2,1,8,{8}7h[4:1]/3h[4:1],,,,2/6,
4,7/3,5,{24}2,6,2,6,3,7,3,7,4,8,4,8,3,7,3,
7,2,6,2-6[8:1],{6}6,{24},,,,,,,{8}7qq2[4:1],{48},,,,,,2,3,{12}4h[24:11],
{48},,,,,,,,,,,,,,,,,,8,1,2,3h[16:3],,,,,,,,,{8}2pp7[4:1],{48},,,,,,7,6,{12}5h[24:5],
{24},,,,,,,,,{8}8h[16:27]/1h[16:27],{1},,{4},,,{8},C/8q6q4q2q8[8:23],
,,,,,,,A3,
,,,,,,,D1,
,,,,,,,C,
,,,,,,,2h[8:7],
,,,,,,,6/2h[1:1],
{16},,,,,,,,,,,,,,4,
2h,8,4h[8:1],,,5,3h,1,5h[16:3],
,,6,4h,2,6h[16:3],,8,{8}8,1/7,{16}3,3,,4/2,
{48},,,,,,{24}6,5,3,{8}4,{16}7,5,{4}1h[4:1],{16}2,4,{8}8h[4:1],
{16},,7,5,{4}1bh[4:9],,,,{16},,{48}5,
6,7,8h[16:25],{1},{4},{16},,{24},{8}5,
5,3,3,8-3[12:1]/2-7[12:1],6/4,8/2,,7-4[12:1]/5-1[12:1],
4,7/5,,8>4[8:1],{16}5,5,{8}8,{16}6,7,8,1,
3,1,2,4,2,4,{8}1-4[12:1],{16}5,6,{8}1/7-2[12:1],,7/5-2[12:1]*-1[12:1],
{16}3,3,{8}5,{16},,8<5[12:1],1,2,3,{8}4/8,{16}4,3,2/5p1[8:1],1,
8,7,,8h[16:3],,,7,6,5,8/4h[16:3],1,2,3,5-2[12:1],6,7,
8,1,8,7,6,5,2,1,3,8,{8}4h[8:1],{16}5,4,6-1[8:1],5,
{8}7h[8:3],,,8,{16}8/6h[8:1],1,2,3,7/4>6[4:1],8,{8}1,
8,8h[8:1],{16},,5,4,1,2,{8}7,{16}6,7>4[8:1],{8}1,
{16},2h[16:5],,,,,7,3,7,5,7,3,7,5,8,2,
8,4,8,2,8,4,{8}7h[16:3],{16}8,1h[8:1],,4,{8}5h[8:1],{16}3,2h[8:1],
4,5,1/6,2,3,1/4,{8}2h[8:3],,3,{16}3,1,2,8,
{8}7/1h[8:1],6,6h[8:1],7h[8:3],,6,{16}6,8,7,1,
{8}2/8h[8:1],3,3,{16}4/6h[8:1],3,2,1,8,7,6,5,8/4h[16:1],7,
6,5,4,3,2,1,{8}4/8,2/1,3/4,5/6,8/3,
1/6,8/3,{4}6h[4:3]/1h[4:3],,,,{48}2,
1,{24}8w4[6:11],
E
