&title=Last | Eternity
&artist=onoken
&first=0
&lv_5=13+
&des_5=@Popcorn
&inote_5=
(175){4},,,,{48}4h,
5h,,,,,,,,,,,{8}2,6,,4,,5v7<6-4[8:5],
{1},{48}5,
4h,,,,,,,,,,,{8}7,3,,5,,4qq3-5[8:5],
{1},{48}5h,
4h,,,,,,,,,,,{8}2h[48:1],6h[48:1],,3h[48:1],,5-7<6-4[8:5],
{1},{48}4h,
5h,,,,,,,,,,,{8}7h[48:1],3h[48:1],,6h[64:3],,4q8>1q5[8:5],
,,,,,,,6x,
{4}3/5x,{8}3-8[8:1],5,{4}3/4,6/1,
7<4[8:1],3/7,2,1/8,
7-1[8:1],3-5[8:1],6-2[8:1],4>6>5[2:1],
{8}5b,,,,,3xh[8:1],{4}1xh[4:1],
2-6[8:3],{8}8,3,,,4,6xh[8:1],
{4}8h[4:1],7-3[8:3],1,4xqq1[2:3],
{8}7xh[4:1],,,6h[4:1],,,{4}5bq1[2:1],
,,,4b>5<1[4:7],
,,,,,,,,7/3h[4:1],
{8}7h[8:1],3h[8:1],{4}7,6/3,
{8}2h[8:1],6h[4:1],,3-8>2[8:3],{16},,,,,,5x,6x,
{4}7x,{8}3h[8:1],7h[8:3],,,{4}3,
{8}7h[8:1],3,,6/2,{32},,,,,,,,,,,,,,1h[64:1],2h[64:1],
{8}3x-8[8:1],4x,5x,6-3[8:1],7,8,1-6[8:1],2,
3,4w8[8:1],5x/3x,4bx,,,,7,
7-4[8:1],4-8[8:1],,,{4}2<6[4:1],3,
{8}3-5-1[8:1],3,{4}8,8>3[8:1],7,
{8}7,4h[8:1],8h[8:1],5h[8:1],7h[8:1],6-4-2[16:3],,8,
{4}1pp6[8:3],{8}7x,7xh[8:1],,,,,{4}6h[8:1]/5h[8:1],
5h[8:1]/4h[8:1],3h[8:1]/4h[8:1],3h[8:1]/2h[8:1],
2h[8:1]/1h[8:1],{8}1x/8x,8x/7x,6/5x,3/4x,{4}2b/1b,
{16}1,8,2,7,3,6,4,5,3,6,2,7,1,8z4[16:3],{8}1bs5[8:1],
,,,,6xh[8:1],2h[4:1],,6,
{4}6>3[8:1],{16}2/6x,1x,8x,7x,{4}6bx>2<1[4:3],8xh[4:1],
{8},7h[4:1],,,{4}6h[4:1],{8}2-5[8:1],2,
{4}2-8[8:1],2/7,{8}7x<4[8:1],8/2,{4}7/1,
1<5[4:1],3,1,{8}1-5[8:1],1,
{4}4h[4:1],{8}6x>3[8:1],6,{4}1h[8:1],{8}2-7[8:1],2,
{4}3h[4:1],{8}4h[8:1],5,{4}3/6h[4:1],{8}2p6[8:1],2,
{4}3h[4:1],5h[4:1],{8}4,{16}3,5,3,5,4,6,
4,6,3qq8[8:3],5,{4}3,{16},,,,,,,,8b,
8,8,8,8,8,{8}8,{24}1bx/7bx,2x,3x,4x,{12}5x,{48}1,,,8,,,{16}7,6,
4,3,2,1,7,8,6,1,5,2,4,3,{4}5-7-1[4:1],
2b,3-1-7[4:1],{2}6b,
{4}6h[4:1],5h[4:1],{24}4x,3,2,1,8,7,{8}6x/4bx,1x,
8-4[8:1],7,8/6,5,6x/3x,7,8/1h[4:1],2x,
{24}3b,4,5,6,7,8,1,2,3,4,{48}5xh[24:1],,,6h[48:5],,,,,,7h[48:7],,,,,,,{4}8bq6q4q2q8[4:15],
{1},,,,{8}3h[8:3],
,,4h[8:3],,,{4}5h[8:3],
{8},6h[8:5],,,{2}3h[4:1],
{8}7h[8:3],,,8h[8:3],,,{4}1h[8:3],
{8},2h[16:11],{16},,,,E7/B6,E5/B4,{32},,,B8/E1,,,{16}C/B7,,,{4}7xh[8:3],
{8}1,2h[8:3],,8,{4}7h[8:3],
{8}2,3h[8:3],,6,{2}5b<8[8:1],
{4}1h[8:3],{8}8h[64:1],7h[8:3],,1h[64:1],{4}2h[8:3],
{8}7h[64:1],6h[8:3],,3h[48:1],{2}4b>1[12:1],
{4}8h[8:3],1,1h[16:1],{8}7h[16:1],7<4[4:1],
,1h[16:1],{4}1>4[2:1],{8},5h[24:1],,,{1}5h[1:1],
{2}4,3,
{16}2b,1,3,1,{8}2h[8:1],{16}7,8,6,8,{8}7h[8:1],{16}5x,6x,4,5,
3,4,2,5-1[8:1],{4}2h[8:1],{8},3bv8[8:1],1x,7v4[8:1],
5,3v8[8:1],1,7v4[8:1],5,4,{4}3v8[8:1]*v6[8:1],
{2}3b,{16}4x,5,{8}4,{16}7b,8,6,8,
{8}7h[8:1],{16}2,1,3,1,{8}2h[8:1],{16}4x,3x,5,4,6,5,7,4-8[8:1],
{2}7h[8:1],{8}6<8[8:1],4<2[4:1],6,4,
,,{4}6/4,{8}3>1[8:1],5>7[4:1],3,5,
{16},,,,,4bx,5,6,7/3,8/4,1/5,6/2,{4}7-2[8:1]/3-6[8:1],
3/7>5[4:1],7bx,{16}8,1,2,3,{8}4x/8-4[8:1],{24}1x,2x,3x,
{4}8bx-6-2[4:1],{24},,,,,,,,,,,,4bx,3,2,1>4[8:1],,,{8}7,
{24}5x,6,7,{8}8<5[8:1],3,2-6[8:1],1,6,{24}8,1,2,
3,4,5,6bx,,,{4}8bxw4[8:1],8b<2[8:15],8bx,
{1},{4},,,{16},,,{48},{24}5h[64:1],
{48},3h[32:1],,,,,{8}6pp8<7-4[4:3],,,,,,,,,3,
2,{2}1>7[1:1],
{4}5h[48:1],{8},,,,3,2,
{1}1>4<5[8:5],
{4}6h[4:1],3h[4:1],5h[16:5],4h[2:1],
,5h[48:1],{16}4,5,3,6,2,7,1,8,
{8}1h[8:1],8h[8:1],7h[8:1],6h[8:1],5h[8:1],4h[8:1],3h[8:1],2h[8:1],
{2}1b-5[8:1],{16}6,8,7,1,8,2,3,1,
2,4,3,5,4,6,5,7,8,6,1,7,2,8,3,1,
{2}4bxw8[8:1],{16}3x,2x,1,8,5x,6,7,8,
{8}1x,1x,{16}3,4,3,4,1,8,1,8,5,6,5,6,
{12}2h[12:1],1h[12:1],3h[12:1],7h[12:1],8h[12:1],6h[12:1],4h[12:1],5h[12:1],3h[12:1],6,{24},{8}2,
{4}1-5[8:1],7-4[8:1],3-8[8:1],5,
{8}1bx,{16},,,,5/3,6,7,8,2,3,4,5,8,7,
6,5,2x,1,{8}2,3/8,4/7,{16}6,5,{8}6,5/4,
{16}3,4,,2,{8}1,3/5h[8:1],{16},,,4b<7[8:1],,3,{8}4/2,
1,8bx>3[8:1],7x,6/8,5,4bv7[8:1]*v1[8:1],3/5,4,
{24},,,8bv3[8:1]*v5[8:1],7x/1x,6x/2x,5x/3x,4x,,,,,,,,{8}5x-2[8:1],6,5/7-4[8:1],
8,7/1>4[8:1],8,1-5[8:1],{24}5,6,7,8x/1bx,{48},,,,,,,,,,{16}3x,4x,
3,4,,6,{12}7h[12:1],5h[12:1],8h[12:1],2h[12:1],4h[12:1],1bxh[12:1],8,{48},,{16}1,7,
2,6,3b,4,2,5,3,6,2,1,3,7,5,7,5,8,
{24}4b,3,2,1,8,7,6,5,4/8,3/7,2/6,5/1,4,3,2,{96}1/8,,,7x,,,{32}6x,5x,{4}4x/8bx-4[12:1],
{1}8bq6q4q2q8[4:13],
,,,{48}4h[256:1],
5h[48:1],,,,,{8}2,6h[32:1],3h[4:1],,6h[4:1],,2h[8:7],
{1},{32}5h[256:1],
4h[32:1],,,{8}7,3h[64:1],6h[48:11],,2h[16:3],{24},5h[24:5],
E
