&title=ジョハリ
&artist=Nornis
&first=-0.066
&lv_5=13+
&des_5=Yoz
&inote_5=
(167){4},,,,,8/1-3-5v4[4:3],
{8},7,,,{4}6,
6<4[2:1],5,6,
7,1/8-6-4v5[4:3],{8},2,,,{4}3,
3-1-7-5[2:1],4,3,
2,1h[4:3],4,{8}6,5,
{4}6,{8}3,5,4,6,4,5,
4,5,{24}6/4x,3,2,1,8,7,6,5,4,3/8x,7,6,5,4,3,2,1,8,
7/4x,3,2,1,8,7,{8}1/6,1,1,1,1-5[8:1],{16}8,2,
{4}1b,6h[4:1],B3/B4,3h[4:1],
B6/B5,5h[4:1],B1/B2,4h[4:1],
B8/B7,{8}5/3h[8:1],5,4/6h[8:1],4,7/3,6/2q5[2:1],
7/3,8,,,C,,,7/8,
6/1,5/2,{4}4/3>7[4:1],7b<3b[4:1],3,
{8}8,7,6/2,3,5,4,,6-1[8:1],
5,6,,2>5[8:1],1,2,,6,
6,3,{4}5/3b-8[8:1],3/6b-2[8:1],6/1b-5[8:1],
8/1b,{8}6,5,7,3,4,2,
6,5,8,3,4,1,6h/5h,4h/3h,
2h/1h,7h/8h,2,1,3,7,8,6,
2,1,4,7,8,5,2h/1h,3h/4h,
5h/6h,7h/8h,{4}4>1[8:1],{24}8-4[8:1],7,6,5,,,{4}8,
{8}6h[8:1],5,6h[8:1],7,6h[8:1],4-8[8:1],6,4/6,
,2,{4}2-5[8:1],{8}8,8<5[8:1],,3-6-1-4-8[8:7],
,8x,{4}8x,E7,E5,
Cf,4h[4:1]/6h[2:1],{8},4,{4}4h[4:1],
{8}6h[8:3],,,4,{4}6/4h[4:1],6h[4:1],
{32}A1/D2,A2,D3,A3,,,,,{4}3xh[2:1]/5xh[4:1],{8},5,{4}5h[4:1],
{8}3h[8:3],,,5,{4}3/5h[4:1],3h[4:1],
{32}D7/A6,A7,D8,A8,,,,,{8}1x/2x,2,2/3x,3,3/4x,4,
4/5x,5,5/6x,6,6/7x,7,{4}8>3[8:1]/7<4[8:1],
8b/7b,{16}1,8,1,8,2,7,2,7,3,6,3,6,
4,5,4,5,{24}4,3,2,1,8,7,6,5,4,3,2,1,{32}8-4[8:1],7,6,5,4,3,2,1,
{4}8b,6h[8:1]/5h[8:1],{8}6,5,7,5,
6,5,{4}4/6-1[8:1],3,4/6-1[8:1],
2,4/7qq1[4:1],1>7[8:3],8x,
1x-5[8:1],8/1b,B8/B7,{8}2,4,
3q7[4:1],5,{4}3,B8,{8}7,5,
6pp1[8:3],4,{4}6,B2,{8}3,5,
4,6,{4}6<1[8:1]/2>5[8:1],2/6-2[8:1],6/8-4[8:1],
8/1-4[8:1],7/1b-6[8:1],3/1b-5[8:1],5/1bw5[8:1],
1b,8h[8:1]/2h[8:1],{8}6,4,5,3,
5,4,{4}3/6<1[8:1],3,4/6<1[8:1],
2,4/7qq1[4:1],1x>5[4:1],5xqq7[8:3],
1-5[8:1],1b,B8/B7,{8}3,4,
3q8[4:1],2,{4}3,B1,{8}6,5,
6p1[4:1],7,{4}1p4b[4:1],4>1[4:1],1p5b[4:1],
5qq8[2:1],1xh[8:1],1xh[8:1],2xh[8:1],
2xh[8:1],6b/Cfh[4:3],,B8/B7,
,6h[4:1],{8}4,4h[8:1],6,6h[8:1],
4h[8:1],5,6h[8:1],5,4h[8:1],6h[8:1],5,4h[8:1],
5,6h[8:1],{4}3h[4:1],{8}5,5h[8:1],3,3h[8:1],
5h[8:1],4,3h[8:1],4,5h[8:1],3h[8:1],4,5h[8:1],
4,3h[8:1],{4}7h[4:1],{8}1,1h[8:1],7,7h[8:1],
1h[8:1],8,7h[8:1],8,1h[8:1],7h[8:1],8,1h[8:1],
8,7h[8:1],{4}2h[4:1],{8}8,8h[8:1],2,2h[8:1],
8h[8:1],1,{4}1<6b[4:1],D8/6>3b[4:1],D5/3>8b[4:1],
8/A2,6h[4:1],{8}2,2h[8:1],5,5h[8:1],
1h[8:1],5,4h[8:1],8,4h[8:1],8h[8:1],4,4h[8:1],
8,8h[8:1],{4}4h[4:1],{8}8,8h[8:1],3,3h[8:1],
7h[8:1],3,6h[8:1],2,6h[8:1],2h[8:1],5,5h[8:1],
1,1h[8:1],{4}5h[4:1],{8}1,1h[8:1],5,4h[8:1],
8h[8:1],4,8h[8:1],3,7h[8:1],3h[8:1],7,3h[8:1],
7,6h[8:1],{4}2h[4:1],{8}6,6h[8:1],1,1h[8:1],
5h[8:1],1,{4}5bxh/1bxh,{8},,8/E2,8/E3,
8/E4,8/E5,{4}8xh[8:1],6h[8:1]/4h[8:1],8xh[8:1]/1xh[8:1],
5h[8:1]/3h[8:1],6-8-5[4:1],{8}1,2,{4}3-8[8:1],
7-4-2[4:1],2-5-7[4:1],7-1-3[4:1],3-5-7[4:1],
C,{8}2,2h[4:1],,4,{4}4h[4:1],
5h[4:1],{8}7,1,5,3,6,1,
7,4,8-4[4:1],2,6,8,,5,
3,7,{4}1-4[8:1],1/7-4[8:1],7/2-5[8:1],
2/8qq4[8:3],8b,{8},,E4,B1/B2,
E8,B6/B5,3,3,6,7>3v5[2:1],,,,,,,,7,
{4}7-4[8:1]*-3[8:1],
7,{8}1/2,3/8,{4}4/7,{8}5x>2[8:1],5x<7[8:1],
5xp1[8:1],5x-8[8:1],5x,5x,{32},,,,,,,,A8,B1,B2,A3,,,,,A1,
B8,B7,A6,,,,,{8}3,3,6,7b>3v5b[2:1],,,,,,,,2,
{4}2v5[8:1]*p6[8:1],
2,{8}4/3,5/2,{4}6/1,{8}8x>3b[8:1],8x<6b[8:1],
8x-5b[8:1],8x,8x,Cfh[8:5],,,,,,,{4}6h[8:1]/5h[8:1],
{8}6,4,6,5,
6,7,{4}E4/6-1[8:1],E2,E4/6-1[8:1],
E2,E4/7qq1[4:1],1>7[8:3],8xh[8:1],
8xh[8:1],{8}1/5,2/6,7/3,8/4,5,3,
5,3,{32}3h[8:1],E6,E7,E8,,,,,{4}8xh[8:1]/4xh[8:1],{8}5,6,
4,6,{32}6h[8:1],E4,E3,E2,,,,,{4}5xh[8:1]/1xh[8:1],{8}3,5,
4,5,{4}4/5<8[8:1],5/4>1[8:1],4/7-3[8:1],
7/2-6[8:1],2/1b-5[8:1],1/8b-4[8:1],8/4bw8b[8:1],
A4f,5h[8:1]/3h[8:1],{8}7/4,6,5/2,3,
7/4,6,{4}B4/6<1[8:1],E2,B4/6<1[8:1],
E2,B4/7qq1[4:1],1x>5[4:1],5xqq7[8:3],
1-5[8:1],1b,B8/B7,{8}5/3h[8:1],5,
4/6h[8:1],4,{4}3v8[8:1],7,{8}4/6h[8:1],4,
5/3h[8:1],5,{4}6p1[4:1],1p4b[4:1],4>1[4:1],
1,{8}5<8[8:1],5,3>8[8:1],3,5pp4[4:1],5,
3qq4<2b[2:1],3,,,,,{4}C,
,1/7h[8:3],{8},1,{4}1-5[8:1],
{8}6,,,7,{4}7p4[4:1],1-5[8:1],
1x,8/2h[8:3],{8},8,{4}8p4[8:1],
{8}2,,,2,{4}2q5[4:1],8-4[8:1],
8x,6h[8:3],{8},4,{4}4>1[8:1],
{8}7,,,7,{4}7<4[8:1],{24}3/7,2,1,8,,,{4}C,
3h[8:3],{8},5,{4}5<8[8:1],
{8}2,,,2,{4}2>5[8:1],{24}6/2,7,8,1,,,{4}C,
7h[2:1],{8}5,5,{4}5-2[4:1],
2-7[4:1],{8}8,8,{4}8-3[8:1]*-5[8:1],8bx,
4,2qq4[4:1],{8}7,7,{4}8-5>4[4:1],
1,{8}3,3,{4}4-1[8:1]*-7[8:1],4bx,
8,{8}4/8,8,7/3,7,6/2,6,
5/1,5,4/8,4,3/7,3,2/6,2,
5/1,1,{16}7,5,7,5,8,1,8,1,5,3,5,3,
7,6,7,6,{4}7h[4:3],{2}Cfh[2:1],
{4},1h[2:3]/5h[4:3],,,,6,
7,8b-4b[4:1],
{8},,2,2,4/2,4,4/6,6,
{4}6/1x-5[8:1],1bxw5[8:1],{16}1bx,Cf,,,{8}8<5[8:1],1,
2,3>8[8:1],4,5,6>3[8:1],7,8,1<6[8:1],
2,3,4>1[8:1],5,6,7,8,7/1,
6/2,5/3,{4}4<7[8:1],4>1b[8:1],4-7[8:1],
4-1b[8:1],8h[8:1],5h[8:1]/7h[8:1],5h[8:1]/4h[8:1],
3h[8:1]/1h[8:1],6h[8:1]/5h[8:1],{8}6,4,6,5,
7,4,{4}3/6-1[8:1],6/2>5[8:1],2/6-1[8:1],
6/2-4[8:1],2/7qq1[4:1],1x>5[4:1],5xqq7[8:3],
1-5[8:1],1b,B8/B7,{8}5/3h[8:1],5,
4/6h[8:1],4,{32}3h[8:1]/E5,E6,E7,E8,,,,,{4}8bxh[8:1]/4bxh[8:1],2h[8:1]/6qq1[8:3],
2h[8:1],3>8[8:1],3/6-2[8:1],6/1-5[8:1],
1/5,{32}6,7,8,1,2,3,4,5,6,7,8,1,2,3,4,5,6,7,8,1,2,3,4,5,
6,7,8,1,2,3,4,5,6,7,{16}8b-4[4:3],,,,,,,,,,,,,,,{4}1-7-2-6-3-5[4:5],
,,,,,,{2}Ch[4:1],
{8}6,6,6,6,
6/B4,6,6,6,6/B1,6,6,6,
6/C,6,{4}7xh[8:1]/5xh[8:1],{8}3,3,3,3,
3/B5,3,3,3,3/E8,3,3,3,
3/C,3,{4}2xh[8:1]/4xh[8:1],{8}8,8,8,8,
8/B3,8,8,8,8/B6,8,8,8,
8/C,8,{4}7xh[8:1]/1xh[8:1],{8}2/5,3,4/7,6,
2/5,3,4/7<4[8:1],8,7/1-5[8:1],8,1/7-3[8:1],8,
{4}7b/1b,1/2,{8}1-4[8:1],5,1-6[8:1],5,
1-4[8:1],5,1-6[8:1],5,1-4[8:1],5,1-6[8:1],5,
1-5[8:1],5,{4}1,{8}8-3[8:1],4,8-5[8:1],4,
8-3[8:1],4,8-5[8:1],4,8-3[8:1],4,8-5[8:1],4,
8-4[8:1],4,{4}8,{8}1>4[8:1],5,1<6[8:1],5,
1>4[8:1],5,1<6[8:1],5,1>4[8:1],5,1<6[8:1],5,
1s5[8:1],5,{4}1,{16}8,1,2,3,8/4,5,6,7,
4/8-4[8:1],1,2,3,{4}8b/4,
E
