&title=Viyella's Tears
&artist=Laur
&first=0.4
&des=刻于晴空玉衡星
&des_5=刻于晴空玉衡星
&lv_5=14+
&inote_5=(218){4},,,,{32}1b,
2/8,3/7,4/6,{8}5-2-5[8:21]*-8-5[8:21],{1},,,{4},,,{1}8z4<7[4:5],
,4z8>3[4:5],
{8},,,,,,,,8b/1b,
,,2h[8:3],,,{4}4h[8:3],
{8},6h[8:3],,,{4}8b,8-4[8:1],
{8}1b/8b,,,3h[8:3],,,{4}7h[8:1],
{8},7h[8:3],,,{4}1b,1-5[8:1],
{8}8b/1b,,,6h[8:3],,,{4}2h[8:1],
{8},2h[8:1],,,{4}8b,8-4[8:1],
{2}1b/8b,{4}3b,7b,
{1}5bpp4[2:1]/1bpp8[2:1],
{4}6x-8[8:1]/2x-4[8:1],6/2,{8}6,5,6,4,
6,5,6,4,6,5,6,6,
{4}7-5[8:1]/3-1[8:1],7/3,{8}3,4,3,5,
3,4,3,5,3,4,3,{24}8x/3,7x,6x,
{4}5x-1[8:1],2h[2:1],{16},,,,,,,,8,
7,6,5,1,2,3,4,8,7,6,5,1,2,3,4,
5x,6,7,8,5x,6,7,8,5x,6,7,8,5x,6,7,8,
{8}1x,1x,1x,1x,{24}8,7,6,1,2,3,{4}4b,
{8}7x-5[8:1],8-4[8:1],7,8,1xv6[8:1],2>5[8:1],1,2,
{4}7x-4[8:1],7/3x-8[8:1],3/6x-1[8:1]*-2[8:1],6x,
{8}3x,3,5,5,2x,2,7,7,
{4}5h[8:1]/1x-7[8:1],5h[8:1]/1x-3[8:1],5h[8:1]/1x-7[8:1],1x/5h[8:1],
{8}1x>3[8:1],8q4[8:1],1,8,5x-1[8:1],6-8[8:1],5,6,
{4}2x-5[8:1],2/6x-1[8:1],6/3x-8[8:1]*-7[8:1],3x,
{8}6b,6,4,4,7,7,2,2,
{16}1,8,1,8,1,8,1,8,1,8,1,8,{24}1x-5b[8:1],8x,7x,6x,5x,4x,
{1}3x/1b-7-5<1[4:13]*-3-5>1[4:13],
,,,{8}3x/B7/B6,
3,3,3,3,3,3,3,
7x/B1/B2,7,7,7,7,7,7,7,
{16}1,2,3,4,8,7,6,5,{24}1,2,3,4,5,6,7,8,1,2,3,4,
{1}5bw1[2:1],
{8}1x,{16}7-5[8:1],8,,8,{8}7,1,1,{4}1,
{8}3x,{16}1-5[8:1],2,,2,{8}1,3,3,{4}3,
{8}8x,{16}2-4[8:1],1,,1,{8}2,8,8,{4}8,
{8}6x,{16}8-4[8:1],7,,7,{8}8,6,6,{4}6,
{16}5xh[8:1],,,5h[8:1],,,{8}5,{16}3,4,3,4,2,5,2,5,
3xh[8:1],,,3h[8:1],,,{8}3,{16}6,5,6,5,7,4,7,4,
6xh[8:1],,,6h[8:1],,,{8}6,{16}3,4,3,4,2,5,2,5,
1b,,,5b/3b,,,{8}8b,{2}6b/4b-1[8:1],
{16}7xh[8:1],,,7h[8:1],,,{8}7,{16}1,2,3,4,2,3,4,5,
2xh[8:1],,,2h[8:1],,,{8}2,{16}8,7,6,5,7,6,5,4,
8xh[8:1],,,8h[8:1],,,{8}8,{16}1,2,3,4,2,3,4,5,
3xh[8:1],,,3h[8:1],,,{8}3,{16}6,5,6,5,{4}6,
{16}1xh[8:1],,,3h[8:1]/4h[8:1],,,{8}5/2,{16}1,8,7,6,8,7,6,5,
3xh[8:1],,,6h[8:1]/5h[8:1],,,{8}4/7,{16}8,1,2,3,1,2,3,4,
6xh[8:1],,,3h[8:1]/4h[8:1],,,{8}5/2,{16}1,8,7,6,8,7,6,5,
1b,,,3b/4b,,,{8}8b,{2}5b/6b-1[8:1],
{8}2x/8x,8x/2x,{4}8x/2x,{16}8x,7,6,5,7x,6,5,4,
6x,5,4,3,5x,4,3,2,4x,3,2,1,{4}3x,
{8}7x/1x,1x/7x,{4}1x/7x,{16}1x,2,3,4,2x,3,4,5,
3x,4,5,6,4x,5,6,7,5x,6,7,8,{4}6x,
{8}3x/5x,5x/3x,{4}5x/3x,{16}5x,6,7,8,6x,7,8,1,
7x,8,1,2,8x,1,2,3,1x,2,3,4,{4}2x,
{8}6x/4x,4x/6x,{4}4x/6x,{16}8x,7,6,5,1x,2,3,4,
5x,6,7,8,5x,6,7,8,1x,2,3,4,1x,2,3,4,
{2}5b,{16}1,2,3,4,8,7,6,5,
1,2,3,4,8,7,6,5,2b,4,2,4,2,4,2,4,
1b,4,1,4,1,4,1,4,8b,4,8,4,8,4,8,4,
{24}8b,7,6,5,4,3,2,1,8,7,6,5,4,3,2,1,8,7,6,5,4,3,2,1,
{1}8b/4b,
1b/5b,
6b/2b,
7b/3b,
{6}8,{12}8,7,,7,{6}6,{12}6,5,,5,
{6}1,{12}1,2,,2,{6}3,{12}3,4,,4,
{6}7-4[8:1],{12}7,2-6[8:1],,2,{6}8-4[8:1],{12}8,1b,,1b,
,,,,,,,,,,,,{2}8bV62[2:1],
{4}2-4[4:1],4-6[4:1],
{2}6-8[4:1],{4}1-5[8:1],{8}1,6,
{4}6<1[4:1],1>4[4:1],4<7[4:1],7>2[4:1],
4-1[8:1],4,{8}8,8,7,{16}2,3,
{2}4-1[8:1],{4}8>4[4:1],4<8[4:1],
8,{8}1,1-4[8:1],,,7,{16}7x,6x,
{2}5x-8[8:1],{16}3,,,1,,,{8}7,
{4}5/1,{8}2-6[8:1],2,,7,8-4b[8:1],8,
{2}8b/1bV37[2:1],{4}7<5[4:1],5>3[4:1],
{2}3>1[4:1],{4}8-4[8:1],{8}8,3,
{4}3-8[4:1],8-5[4:1],5-2[4:1],2-7[4:1],
5-8[8:1],5,{8}1,1,2,{16}7,6,
{2}5-8[8:1],{4}1V75[4:1],5V31[4:1],
1,{8}8,8-5[8:1],,,2,{16}2x,3x,
{2}4x-1[8:1],{4}6h[4:1],{8}2,4b/8b,
{16},,,,,,,,,,,,,,,,8xh[8:1],
,,8h[8:1],,,{8}8,{16}2,1,2,1,3,8,3,8,
2xh[8:1],,,2h[8:1],,,{8}2,{16}7,8,7,8,6,1,6,1,
7xh[8:1],,,7h[8:1],,,{8}7,{16}2,1,2,1,3,8,3,8,
4,,,8/2,,,{8}5,{2}7/1-4[8:1],
{16}8xh[8:1],,,8h[8:1],,,{8}8,{16}2,1,3,8,2,1,3,8,
2xh[8:1],,,2h[8:1],,,{8}2,{16}7,8,6,1,7,8,6,1,
{2}7b-2[8:1]*-4[8:1],{8}3x,3x,7x,7x,
{16}8,7,6,5,1,2,3,4,{24}8,7,6,5,4,3,2,1,8,7,6,5,
{1}4bw8[2:1],
{4}6x/3x,{16}6,5,{8}6,{16}3,4,{8}3,{4}5/4,
{1}7b/2bqq5[4:9],
{8},,,,,,,,,,,,,,,,B3,
,,B7,,,{4}B1,
{1}6qq1[4:9],
{4},,,,,,,,,E6,
B3,B7,
{24}E3,B3,{12}B4,,,,,,,,,,,{2}6h[2:1],
2h[2:1],
{1}8h[1:1],
{8}B2,,,B8,,,{4}B3,
{24}E7,B6,{12}B5,{24},,,,,{8}B3h[8:7]/B2h[8:11],,,{4}B7h[4:3]/B8h[4:5],
,,,,,,,,{1}1xw5b[8:3],
{8}7/1,1/7,{4}1/7,{16}1,2,3,4,2,3,4,5,
3,4,5,6,4,5,6,7,5,6,7,8,{4}6,
{8}2/8,8/2,{4}8/2,{16}8,7,6,5,7,6,5,4,
6,5,4,3,5,4,3,2,4,3,2,1,{4}3,
{8}6/4,4/6,{4}4/6,{16}4,3,2,1,3,2,1,8,
2,1,8,7,1,8,7,6,8,7,6,5,{4}7,
{8}3/5,5/3,{4}5/3,{16}1,2,3,4,8,7,6,5,
4,3,2,1,4,3,2,1,8,7,6,5,8,7,6,5,
{2}4b,{16}8,7,6,5,1,2,3,4,
8,7,6,5,1,2,3,4,7b,5,7,5,7,5,7,5,
8b,5,8,5,8,5,8,5,1b,5,1,5,1,5,1,5,
{24}1b,2,3,4,5,6,7,8,1,2,3,4,5,6,7,8,1,2,3,4,5,6,7,8,
{1}1s5z1>4[4:13]/5s1z5<8[4:13],
,,,{8}8/5b,
6,1/4,3,8/5,6,1/4,3,
5/8b,7,4/1,2,5/8,7,4/1,2,
{16}3b,8,3,8,2,7,2,7,{24}1b-5-1b[4:1],2,3,4/1b,8,7,{4}6/1b,
E
