&title=J219
&artist=Cranky
&first=-0.06
&des=Kinhaku respects for mai-Star
&lv_5=13+
&inote_5=(147)
{8},,,,,,,,,,,,7h[8:16],,,,,,,,,,,,,,,,2-6[8:4],,,,,,,,8h[8:8],,,,,,,,1q4[8:4],,,,,,,,7,,7p4[8:4],,,,,,2h[8:15],,,,,,,,8-4[8:4],,8,,,,
{16},,7,7,3-8[8:8],,,,5,,,,,,,,
{4}5,,6,,6,
{16}6,,,3,3h[8:4],,,,,,,,,,,,
{48}7,,,5,,,,,,2,,,4,,,,,,6,,,5,,,,,,3,,,4,,,,,,1b/8b,,,,,,2b/7b,,,,,,
{16}3,4,2,5,1,6,2,7,
{8}3^8[8:1],,7,,
{16}6,,45,,2,,1,8,,3,,7,4,,25,,
{16}1,8,2,7,3,,7,5,,5,3,,
{16}27,,15,,3q6[8:2],,,,,,,,
{16}8,,7,,8,,7,,
{16}2,4,2,4,,3,7,,1-5[8:1]/8,,,,
{16}1b/6,,,,
{16}7,,6,,18,,2,4,,6,,3,7,,1,,
{16}3,4,3,5,3,,1,8,,
{16}4,5,3,6,,2,,7h[8:2],,,,,,,,
{16}2,4,3,3,7,5,6,6,
{16}2b,,2,,5,,3,4,,6,5,,27,,18,,
{16}3,,3,,5,,2,4,,7,5,,18,,27,,
{8}4,3-8[8:1],,3b/5-8[8:1],,5b,,,
{8}1,2-5[8:1],,2b/8-5[8:1],,8b,
{16}1,2,3,4,
{16}7,,7,,4,,6,5,,7,8,,2,5,2,,
{16}6,,6,,3,,2,5,,7,4,,1,8,2,,
{16}8^3[8:1],,7,,6,,5^8[8:1],,4,,3,,2^5[8:1],,1,,8v6[8:1],,,,,,
{16}4,3,2h[8:2],,,,8,,,,
{32}1,2,3,4,5,6,7,8,,,,,
{16}3,4,2,,1,,8,,6,5,7,,8,,1,,4,5,3,6,2,7,3,,
{24}18,27,36,
{16},,3,4,3,,6,5,6,,28,,3v8[8:1]/7,,,7,7,,,5,5,,,3,4,,,7,5-1[8:1],,,8,8,,
{16}7,6,5,,2,3,4,,18,,36,,2,7,3h[8:2],,5,,5,,2,4,2h[8:2],,1,,1<4[8:6],,,,
{16}3h[8:6],,,,,,,,,,,,,,,,18,,3,4,2,,6,5,7,,2,4,3,,7,5,6,,2,4,1,,7,5,8,,2,5,1,,7,4,8b,,
{16}2,5,,7,4,,3,6,,18,1b/8b,,,,
{16}6,,2,1,3,,5,4,6,,73,,15,,26,,3,4,2,4,3,,8,1,,6,5,,27,,35,,
{16}4/7v4[8:1],,,,2/7,,,,1-5[8:1],,8-4[8:1],,1,,8,,2,1,3,1,2,,4,5,3,6,3,7,3,,7,,
{16}2-4[8:1],,,,2/7-3[8:1],,,,17,,4-1[8:1],,,,4/8^5[8:1],,,,3/8^3[8:1],,,,5/8-4[8:1],,,,3/8-5[8:1],,,,28,,1p4[8:1],,,,16,,,,7-4[8:1],,3-8[8:1],,7,,3,,
{16}5,6,7,8,1,,4,6,,5,2,,3b/7b,,15,,
{16}3,4,2,5,2,6,3,5,4h[8:2],,5,,7h[8:2],,6,,
{16}2h[8:2],,4,,5,,3,7,,25,,1,8,,46,,
{16}3,4,3,2,3,,7,4,,2,5,,37,,15,,3h[8:2]/7h[8:2],,,,,,,,
{16}1,8,3,6,4,5,2,7,
{16}3,4,3,4,,7,5,,26,,,,18,,,,
{16}3,,4,,52,,1,8,,3h[16:3],,1,1,,47,,
{16}3,4,2,4,1,,3,6,,5,7,5,8,,26,,
{16}1b,1,2,3,3,,6,5,,3,4,,18,,36,,
{16}8b,8,7,6,6,,3,4,,6,5,,37,,15,,
{16}2b,2,3,4,4,,7,5,,2,4,,1pp4[8:6]/8qq5[8:6],,,,
{16}1b/8b,,,,,,,,,,,,,,,,,,,,,,,,,,,,E
&inote_6=(147)
{8},1,
