&title=YUBIKIRI-GENMAN
&artist=Mili
&first=0
&des=匿名用户
&lv_5=13
&inote_5=(146){1},,
(73.01)
{16}
3h[16:7]/4h[16:7],,,,,,,,6h[16:7]/4h[16:7],,,,,,,,2h[16:7]/5h[16:7],,,,,,,,7h[16:8]/3h[16:3],,,,,1,2,3,
3<6[16:3],,,8,,1,,2,2<7[16:3],,,5,,4,,3,3<6[16:3],,,7,,8,,1,1<4[16:4],,,4,,3,2,1,
1h[16:6],,,,,,7,7h[16:6],1,2,3,,,5,4,2h[16:7],5,6,7,8,,,
8,4,6h[16:3],,7,7h[16:3],,8,8h[16:2],,
1pp7[32:7],,4,4,,6,6,,
8qq3[32:7],,4,4,,2,2,,
8pp4[32:7],,5,5,,7,7,,
1z5[8:1],,,,1/2,,,
4,6,5,7-5[16:1],7-1[16:1],2,2,,
,4,2,8-3[16:1],8-6[16:1],3,6,,
,1,7,4-1[16:1],4-7[16:1],8,8,,
,3h[16:2],5,7,2h[16:2],5,7,1/8,,
4>8[32:4],4,8q5[32:4],7h[16:3],,,,,
7>3[32:4],7,3pp5[32:4],4h[16:3],,,,,
2<6[32:4],2,6qq5[32:4],5h[16:3],,,,,
8qq8[32:5],4,3,2,1,,
,2-4[16:1],5-1[16:1],,,,,,,4-1[16:1],7-5[16:1],,,,,,,
3,5/3,,7/4-8[32:3],,1/8qq7[16:5]*pp1[16:5],,,,,,,,,,
,7/4p8[16:1],4/7<4[16:1],,,,,,,2>5[16:1]/5<8[16:1],2/5q1[16:1],,,,,,,
6,5pp7[32:3]/6,,1pp3[32:3]/2,,,,,,6<1[32:3],8>3[32:3],2>5[32:3],4,6,,,
,2-8[16:1],,,6,7-2[16:1],,,4,3-7[16:1],,,5,6-3[16:1],,,
1,2-8[16:1],,7-2[32:3]*-3[32:3],,2w6[16:5],,,,,,,,,,,
1-3[16:1],3-5[16:1],,,1V75[16:2],7,,,1V35[16:2]*V35[16:2],4V68[16:2]*V68[16:2],,,1,4,,,
1,1/8,7,6/5,4,1/2,3,4/5,7,1/8s4[8:1],2,3/4,5,7/8b,,,
5,2/6V47[32:3],,8,7,6-1[16:1]/1,,2,2,3pp6[32:5]/6,,{32}8,,3,6,{16}3,,,
8,7/4V25[32:3],,5,6,8v5[16:1]/4v1[16:1],7,,7,8qq1[16:2]/4qq5[16:2],,,8/4,4/8,,,
3,2qq8[64:5],,5,5,2>5[64:5],,7,7,2v5[64:5]*p6[64:5],,1,1,2,,,
7qq1[32:6],5,2,,7/2h[16:3],,,,2/7,7/2h[16:1],1h[16:1],8h[16:1],7,3h[16:1],4h[16:1],5h[16:1],6h[16:1],
8<1[16:4],,,,8,,,,5qq3[16:2]*qq3[16:2],,,,4pp6[16:2],,,,5w1[32:5]*w1[32:5],,,,,,,,4w8[32:5],,,,,,,
,3h[16:4]/4h[16:4],,,,,,8,1,7,5h[16:3],6h[16:2],,,,
1,8,3,4h[16:3],2h[16:2],,,,1/8,,5/7h[16:3],,3,5h[16:3],,2,7,
,3-5[16:1],4h[16:3],2,,,,8,1,6-4[16:1],5h[16:3],7,,,
,1,8,2-5[16:1],4h[16:3],3,,,,1/8,,1/2,8,7-4[16:1],6/5h[16:2],,6,7,,
2-8[16:1],1,3,,,,5,5,7-1[16:1],8-2[16:1],6,,,,4,4,2v1[16:1],1-7[16:1],3,,,,
5,5,2/7,3,4,4h[16:2],,3,4,5,
3/6-4[16:1],4-7[16:1],7-3[16:1],,,,1,1,2-4[16:1],4-1[16:1],1-6[16:1],,,,
8,8,7-4[16:1],4-8[16:1],8-3[16:1],,,,1,,1z5[8:1],,4/5,,1/2,,,
3,2h[16:3]/5,,,1,7h[16:3]/5,,,8,3h[16:3]/4,,,{32}7,8,{16}7,,,
6,7h[16:3]/4,,,8,2h[16:3],4,,1,6h[16:3]/5,,,{32}2,1,{16}2,,,
6h[16:4],5h[16:3],,,,8/3,,,3h[16:4],4h[16:3],,,,6/1,,,
3,1,7h[16:5],,4h[16:3],,,,1/2,8<1[32:5]/3h[16:1],4h[16:1],5h[16:1],6h[16:1],8b,,,
{16}
8,
{16}
2/6p4[32:4],,4/3>7[32:3],5,6/4,,3,,6pp3[32:5],,{32}1/8,,5,4,{16}6/3,,,
4,3V14[32:3]/7,,1/2,8,3v6[16:1]/7,6<3[32:3],5,5,6pp4[16:2]/3qq5[16:2],,,6,3/6,,,
6h[16:3],8v5[64:5],,2,2h[16:3],8q4[64:5],,7,7h[16:3],8<4[32:3]*pp1[32:3],,3,3,8,,,
7<2[32:4],4,2<5[32:4],,7/3h[16:3],,,,3,6/3h[16:1],1h[16:1],8h[16:1],6,2h[16:1],4h[16:1],5h[16:1],7h[16:1],
8<1[16:4],,,,8,,,,5qq4[16:2]*qq4[16:2],,,,4pp5[16:2],,,,7v4[32:5]*q3[32:5],,,,,,,,
{384}2v5[32:5],2?p6[384:59],,,,,,,,,,,,,,,,,,,,,,,,,,,,,,,,,,,,,,,,,,,,,,,,,,,,,,,,,,,,,,,,,,,,,,,,,,,,,,,,,,,,,,,,,,,,,,,,,,,,,,,,,,,,,,,,,,,,,,,,,,,,,,,,,,,,,,,,,,,,,,,,,,,,,,,,,,,,,,,,,,,,,,,,,,,,,,,,,,,,,,,,,,,,,,,
{16}
||3h[16:3]/5,,1,8h[16:2],,7h[16:2],,6,
1w5[32:20]/8w4[32:20],,,,,,,,,,,,,,,,
||6h[16:3]/4,,8,1h[16:2],,2h[16:2],,3,
3h[16:3]/5,,8,8h[16:2],,7h[16:2],,6,
6p7[16:3]/4,,1,1h[16:4],,,,,
6h[16:3],,1,1h[16:2],,2h[16:2],,3,
3h[16:3],,8,8h[16:2],,7h[16:2],,6,
6h[16:3],,1,1h[16:2],,2h[16:2],,3,
3v2[16:3],,8,8h[16:4],,,,,
7<4[16:4],,,1,,2,,3,
3<6[16:4],,,8,,1,,2,
2>5[16:4],,,8,,7,,6,
6>3[16:4],,,8h[16:2],,,,,
7h[16:8],,,3h[16:2],,,,,
2h[16:8],,,5h[16:2],,,,,
{128}
6h[128:46],,,,,,,,,,,,,,,,,,,,,,,,,,,,4h[128:168],,,,,,,,,,,,,,,,,,,,,,,,,,,,,,,,,,,,,,8,,,,,,,,,,,,
8qq3[128:64],,,,,,,,,,,,,,,,,,,,,,,,,,,,,,,,,,,,,,,,,,,,,,,,,,,,,,,,,,,,,,,,,,,,,,,,,,,,,,,,,,,,,,,,,,,,,,,,,,,,,,,,,,,,,,,,,,,,,,3,,,,,,,,,,,,,,,,,,,,,,,,,,,,,,,,,,,,,2>7[128:96],4q5[128:95]*q5[128:95],,,,,,,,,,,,,,,,,,,,,,
{4},,,,,
E
