&title=luminescence
&artist=米虾Fomiki&初云CLoudie
&first=-0.5699998
&des=A bus
&des_5=A bus
&lv_5=14
&inote_5=(184){4},,,,{1}4/5<4[2:3],
4,
{8}6/E2,,,2/B6,,,{4}8/B2,
{8},4/B6,,,{4}7/C,5/4>5[2:3],
{1}8b,
5,
{8}4/E7,,,7/E1,,,{4}2/E4,
{8},6/E5,,,{4}3/E2,6/E8,
{8}E2/4>5[4:7],B1,B8,E8,,,,,,,,,,,,,E6,
B5,B4,E4,,,E8,B7,
B6,E6,,,E4,B3,B2,E2,
5,{16}6,5,{8}7,4,4,2,3,3,
2,3,3,4,5,7,6,8,
2,3,3,4,{16}5,6,7,8-4[16:1],{8}1b,2,
{16}3x,3,3,3,3,3,3,3,3,1,4,7,{4}2-6[16:1],
{8}2b/1-5<1>5[4:3],1,8,1,2,3,{4}2,
{8}2z6>2[4:5],,,7,,8,,1<6[8:3],
,,,,,3-7[8:1],,2,
1V75[4:1]*V35[4:1],,,,,3<8[8:3],,7,
8s4>8[8:5],,,,,5,6,7s3<7[4:3],
,,,,,3,2,1s5>1[4:3],
,,,,,6,7,8-4[4:1],
,,,8bw4[8:1],,,,,1,
8,7,{16}1-5[8:1],6,,7,{8}1,{4}6,
{8}8,1,2,{16}3,4,3,4,{8}3,2,1,
8,7,6,{16}5,4,{8}3v6[8:1],8,{16}3,1,{8}5V31[0.3261##0.3261],
8,7,6,5bq8[8:3],,,{4}2,
{2}3q6[4:1],{8}7,8,B1,2,
7,8,B1,2,B6,5,4,B3,
1/2,1/8,7/8,7/6,5/6,4/5,4/3,2/3,
{16}1,1,7,7,2,2,8,8,2,3,4,5,6,7,8,1,
{32}2bh[4:1]/3bh[4:1],,,,,,,,,,,3b,{8}4bh[4:1]/5bh[4:1],{32},,,,,,,3b/6b,{4}7bh[8:5]/2bh[8:5],
{8},,,,3b,4b,5b,6b,
{32}7bh[4:1]/8bh[4:1],,,,,,,,,,,1b,{8}3bh[4:1]/2bh[4:1],{32},,,,,,,1b/4b,{4}5bh[8:5]/8bh[8:5],
{32},,,,,,,,,,,,,,,,2b,,,,,6b,,,{16}3b,4b,{8}5b,
{32}7bh[4:1]/6bh[4:1],,,,,,,,,,,8b,{8}2bh[4:1]/1bh[4:1],{32},,,,,,,3b/8b,{4}4bh[8:5]/7bh[8:5],
{8},,,,3b,2b,1b,8b,
{32}4bh[4:1]/7bh[4:1],,,,,,,,,,,3b,{8}2bh[4:1]/8bh[4:1],{32},,,,,,,3b/7b,{4}6bh[8:5]/4bh[8:5],
{16},,,,,,,,3,7,2,8,{4}1,
{8}3,4,5,6,3,4,5,6,
{16}3,4,5,6,3,4,5,6,{4}1h[4:1],7h[4:1],
{8}2,3,4,5,2,3,4,5,
{16}2,3,4,5,2,3,4,5,{4}3h[4:1],1h[4:1],
{8}2-6[8:1],2,5-1[8:1],5,3-7[8:1],3,8-4[8:1],{16}1,2,
{8}3-6[8:1],3,7-2[8:1],7,4q1[8:1],4,8q5[8:1],{16}8,4,
3,2,1,8,1,8,1,8,{8}1h[8:1],{16}8,1h[8:1],,8,{8}1h[8:1],
{2}8b,{16}2,8,4,6,{4}1-5[16:1],
{8}1b/8p4<8[4:1],{16},,,,8,1,2,3,{8}4s8[8:1],8,7<4[8:1],
,3-1[8:1],{16},1,,,8-4[8:1],,,4,,,{8}3,
{4}2-6[8:1],{8}2,5z1[8:1],{16},,1,2,{8}3,3-7[8:1],
,6-8[8:1],{16},8,,,1-5[8:1],,,5,,,{8}8,
7p3<6[4:1],{16},,,,7,8,1,2,{8}3s7[8:1],1,8V64[8:1],
,3,2-6[8:1],1,2/8-4[8:1],7,8/1,2,
3bs7[16:1],,,2bv8[16:1],,,{4}1bs5[16:1],
{8}8bV64[16:1],,,3,2,1,8-4[16:1],7,
8b/1q5>1[4:1],{16},,,,1,8,7,6,{8}5z1[8:1],1,2>5[8:1],
,6-8[8:1],{16},8,,,1-5[8:1],,,5,,,{8}6,
{4}7-3[8:1],{8}7,4s8[8:1],{16},,8,7,{8}6,6-4-8-6[8:3],
,4,3,2s6[16:3],1,2,,,E8/B7/B6,
{16}1x,1,{8}1,{16}E2,B2,{8}B3,{16}5x,5,{8}5,{16}B6,B7,
{8}E8,{16}1x,1,{8}1,{16}B2,B3,{8}E4,5,6,7,
{24}2/8b,3,4,5,{6}6,{24},7/1b,6,5,4,3,,,,,2/8b,3,4,5,6,7,
{2}8b/4h[3:2],{12}8,8,8,5/1,2/6,3/7,
{1}8<5q5[4:3]/4>1p1[4:3],
,7-4-1-6-3[4:3],
{32}B2,B1,{4},,,{16},,,{1}2-7-4-1-6[4:3],
{32}B8,E1,{4},,,{16},,,{1}6-4v2-8v6[4:3],
{32}B3,B2,{16}E2,,,{8}E6/B5,E4,,B6,B7,B8,
{2}B1/E2,{8}E8/E2,E7/E3,{4}E6/E4,
{2}1v7-5-3[2:1],{8}3,2,1>5[4:1],1,
{4}5V71[4:1],{8}8,1-3-7-4[8:3],,2,1,8-6-2-5[2:1],
,,,,1,8,7-4-8[4:1],3,
{4}2-8-5[4:1],{8}2,5>8[4:1],,8-3[8:1],{16}8,7,6,5,
{2}4-6-8-2[2:1],{8}2,3,4-8-3[4:1],5,
{2}6-8-5[4:1],{8}1>5[4:1],2,{16}5,6,7,8,
{8}1-5[4:1],2,8,3,7<3[4:1],4,{16}3,2,1,8,
{2}7-1v6-4[8:3],{8}1,8<5[8:1],{16}5,4,3,2,
{1}1w5[1.9565##0.4348],
{12},,,,,,B8,B7,E7,B2,B3,B4,
{4}5h[4:1],{24}B8,B7,B6,B5,B4,B3,{4}5h[4:1]/B2,1b,
2h[4:1],{24}B7,B8,B1,B2,B3,B4,{4}2h[4:1]/B5,6b,
5h[4:1],{24}B8,B7,B6,B5,B4,B3,{4}5h[4:1]/B2,1b,
2h[4:1],{24}B7,B8,B1,B2,B3,B4,{4}2h[4:1]/B5,8b,
{8}7b/3,7/3b,,,2<7[8:1],8<5[8:1],6>3[8:1],4>5[8:3],
,,,,,3,2,1s5>1[8:5],
,,,,,1,8V64<8[2:1],7,
,,,1s5[16:3]*z5[16:3],,1b,{24},,,,,,{12}3,
2,1,4,3,2,3,1,2,8,1,7,
5,4,3,6,5,4,7,5,8,6,1,7,
3,2,1,4,3,2,{24}5,4,3,6,5,4,7,6,5,8,7,6,
{12}4,3,2,5,4,3,{24}1,2,3,8,7,6,2,3,4,7,6,5,
{2}4/3b>6[8:1],{8}2>5[8:1],1,8,7>2[8:1],
6,5,4<7[8:1],3,2,1>4[8:1],8,7,
{4}6bv1[16:1],{8}2b,2bv5[16:1],,8b,{4}7bv4[16:1],
{8}2b,1bh[4:1],{24},,,,,,1,2,3,8,7,6,3,4,5,6,7,8,
{1}1/Cfh[4:7],
{16},,,,,,,,,,,,,,1/8,2/7,
{8}3/6,5/4,6/3,{16}7/2,6/3,{8}5/4,6/3,7/2,{16}6/3,5/4,
2,3,4,5,4,3,2,7,6,5,4,5,6,7,6,5,
{8}4-2[8:1],4-6[8:1],4-1[8:1],4-7[8:1],4-8[8:1],4-2[8:1],4,4,
1-5[8:1],1-4[8:1],1-6[8:1],1-7[8:1],1-3[8:1],1-5[8:1],1,1,
{4}3bz7[16:1],{16}2,1,{8}8bV64[16:1],{16},,2,1,{4}8bV24[16:1],
{16}8,7,{8}6bs2[16:1],{16},,2,3,{8}4bV28[16:1],{16}6,5,{8}4bV68[16:1],{16}4,3,
{8}2-6[8:1],2,8-4[8:1],8,2-6[8:1],2,5-1[16:1],5,
3v8[8:1],3,7v4[8:1],7,1-4[8:1],1,8-6[8:1],8,
3p7[8:1],3,5q1[8:1],5,2q6[8:1],2,{16}5,6,7,8,
2,3,4,5,3,4,5,6,4,5,6,7,5,6,7,8,
{8}1/2-6[8:1],2/3,1/2b,7,8/7-3[8:1],6/7,8/7b,2,
2/4,3/5,4/6,7/5,8/6,7/5,6/4,{24}3/5,2,1,
{8}Cf/8bq1[16:1],{32},,,,,,,,7/3b,6,{16}5-1[32:1],{32},,,,2/5b,3,{16}4-8[32:1],{32},,,,7/4b,6,{16}5w1[32:1],
,,,Cf,{48},,,,,,{24}3/7b,4,5,6,7,8,5b/1h[4:1],{16},,,{64},{192},{32}5b,2/6,3/7,4/8,
E1/B8/E5/B4/1bpp2p7[4:3]/5bpp6p3[4:3],B7/E7/E3/B3/Cfh[32:0],
E
