&title=恶 臭 的 野 兽 先 辈 目 力
&artist=京
&first=0
&des=田所浩二
&lv_5=114514
&inote_5=(70){16},,,,,,,,,
{16}1,1xh[16:2],,4,5xh[16:2],,1xh[16:1],4,
1,1xh[16:2],4,5xh[16:2],,1xh[16:1],4,C,
1,1xh[16:2],,4,5xh[16:2],,1xh[16:1],4,
1,1xh[16:2],4,5xh[16:2],,1xh[16:1],4,C,
1xh[16:1],C,1xh[16:1],C,4xh[16:1],C,5xh[16:1],C,
1xh[16:1],C,4xh[16:1],C,1xh[16:1],C,1xh[16:1],C,
4xh[16:1],C,5xh[16:1],C,1xh[16:1],C,4xh[16:1],C,
1,1xh[16:2],C,4,5xh[16:2],C,1xh[16:1],4,
1xh[16:1],C,1xh[16:1],C,4xh[16:1],C,5xh[16:1],C,
1xh[16:1],C,4xh[16:1],C,1xh[16:1],C,1xh[16:1],C,
4xh[16:1],C,5xh[16:1],C,1xh[16:1],C,4xh[16:1],C,
1,1xh[16:2],C,4,5xh[16:2],C,1xh[16:1],4,
{32}1x,1,4,,5x,1,4,,1x,1,4,,5x,1,4,,
1x,1,4,,5x,1,4,,1x,1,4,,5x,1,4,,
1,1,1,1,1,1,1,1,1,1,1,1,1,1,1,1,
{48}1x,1x,1x,1x,1x,1x,1x,1x,1x,1x,1x,1x,
{32}4xv5-1[16:2]*-8v1[16:2],,5x,,1x-4^5-1-4^5-1-4^5-1-4^5-1-4^5-1-4^5-1[8:3],,C,,
{8}A4f,,,,
{32}5x,,,5,,,5,,1x-4^5-1-4^5-1-4^5-1-4^5-1-4^5-1-4^5-1-4^5-1-4^5-1[8:4],,4,,5,,1,,
{8}A1f,,,,{32}5x-1-4-1-5b[16:4],C,C,C,C,C,C,C,
{8}A5f/1x-5^4-1-5^4-1-5^4-1-5^4-1-5^4-1-5^4-1-5^4-1-5^4-1[8:4],,,,,,
{32}1x,,,1,,,4,,5x-1-4^5-1-4^5-1-4^5-1-4^5-1-4^5-1-4^5-1-4^5-1-4^5[8:4],,1,,4,,C,,
{8}A5f,,,,{16}1x,1,4h[16:2],,5x,1,4h[16:2],,
{16}1b,1,4h[16:1],5,1,4h[16:1],1b,1,4h[16:1],5,1,4h[16:1],1b,1,4h[16:1],5,
1b,1,4h[16:1],5h[16:1],1,4,1b,1,4v5v4v5v4v5b[8:2],5h[16:1],1,4,C,,,,
{16}1b,1h[16:1],4h[16:1],5h[16:1],1h[16:1],4h[16:1],1b,1h[16:1],4h[16:1],5h[16:1],1h[16:1],4h[16:1],1b,1h[16:1],4h[16:1],5h[16:1],
1b,1h[16:1],4h[16:1],5h[16:1],1h[16:1],4h[16:1],1b,1h[16:1],
4v5v4v5v4[16:3]*v1v4v1v4[16:3],5h[16:1],1,4,A4f,,,,
{16}1,1xh[16:2],,4,5xh[16:2],,1xh[16:1],4,
1,1xh[16:2],4,5xh[16:2],,1xh[16:1],4,C,
1,1xh[16:2],,4,5xh[16:2],,1xh[16:1],4,
1,1xh[16:2],4,5xh[16:2],,1xh[16:1],4,C,
1xh[16:1],C,1xh[16:1],C,4xh[16:1],C,5xh[16:1],C,
1xh[16:1],C,4xh[16:1],C,1xh[16:1],C,1xh[16:1],C,
4xh[16:1],C,5xh[16:1],C,1xh[16:1],C,4xh[16:1],C,
1,1xh[16:2],C,4,5xh[16:2],C,1xh[16:1],4,
,,,,,,,,
{128}B1/Cf,B2,B3,B4,B5,B6,B7,B8,B1/Cf,B2,B3,B4,B5,B6,B7,B8,
B1/Cf,B2,B3,B4,B5,B6,B7,B8,B1/Cf,B2,B3,B4,B5,B6,B7,B8,
A1/Cf,A2,A3,A4,A5,A6,A7,A8,B1/Cf,B2,B3,B4,B5,B6,B7,B8,
A1/Cf,A2,A3,A4,A5,A6,A7,A8,B1/Cf,B2,B3,B4,B5,B6,B7,B8,
,,,,,,,,,,,,,,,,B7f/E7f/E6f/B5f/B2f/B1f/B4f/B3f`B8f`Cf,E
