&title=影色舞
&artist=MyGO!!!!!
&first=0
&des=はくこう
&lv_5=12+
&inote_5=(166)
{1},
{8}
4-6[8:1],3h[4:1],,,,4-6[8:1],3h[4:1],,,,5,4-6[8:1],3-6[8:1],,,,
7-5[8:1],4h[4:1],,,,5h[4:1],4,3,
{16}
7,,4,5,3,,2/6,,,,1b,,1b,,,,
{8}
38,7,2,5,46,3,8,1,7-5[8:1],,3-1[8:1],2,4-8[8:1],5,,,
17,2,5,3,82,7,4,6,1-7[8:1],,6-2[8:1],,3-5[8:1],3,8,,
74,3,6,1,82,7,4,5,3-1[8:1],,7-5[8:1],6,8-4[8:1],1,,,
{16}
25,,7,5,6,4,5,3,4,2,5,4,7,,,,2b,,2b,,,,8b/4b,,,,,,,,,,
{8}
1<4[2:1]/3,,2,,2,,2,,3>6[2:1]/5,,4,,4,,4,,
5>8[2:1]/7,,6,,6,,6,,
1h[4:1]/5p4[16:5],,,,3,3,4-7[8:1],2,4
,,1,1,8<5[8:1],2,8,,3,5,3,4-1[8:1],4-7[8:1],,,,
2,2h[4:1],,7,3,5,46,,
{16}
2,,5,4,6,,37,,,,8b,,8b,,,,
{8}
1<4[2:1]/5,,4,,3,,2,,1>6[2:1]/5,,6,,7,,8,,
1<4[2:1]/5,,4,,3,,2,,
5h[4:1]/1p8[16:5],,,,7,7,8v3[8:1],6,8
,,5,5,4>1[8:1],6,4,,
7-5[8:1],,4-8[8:1],3,2,,1,2-6[8:1],,7,8V25[16:5]*V63[16:5],,,,,,
{16}
35,,26,,17,,2,4,3,5,4,6,2b,,,,
6,5,7,4,6,5,8,,,,1b/2,,1b/3,,,,
3,4,2,5,3,4,1,,,,8b/7,,8b/6,,,,
{8}
2-5[8:1],,5,,6-1[8:1],,1,,2-5[8:1]*-4[8:1],,2,,8,
{16}
6,4,5,3,4,2,3h[16:3],,,2,4h[8:1],,3,5h[8:1],,4,6h[8:1],,5,7h[8:1],,6,8
,,15,,48,,7,5,6,4,5,3,4,2,5,4,
7,,,,27,,4,5,4,6,4,5,4,,,,
37,,26,,37,,26,,,,26,,37,,26,,
51,,3,,84,,6,,15,2,3,4,5-2[8:1]/1-6[8:1],,,,
{16}
1b/5b<8[8:1],,,,3/5>2[8:1],,,,7/5V74[4:1],,,,1,,1h[4:1],,
,,3>8[32:5],,,,4,,5,,6,,7-3[8:1],,,,
7/1-4[8:1]*-6[8:1],,,,1<3[4:1],,,,1/5h[4:1],,,,,,2,,
1-5[8:1]/5,,,8,1,,7,,7-5[8:1]*-3[8:1],,,,,,,,
1b,,6,5,7,,3,4,2,,1/5pp4[8:3],,15,,,,
,,4,,3,,2,,35,,7,,46,,2,,
34,,1,,56,,8,,3,4,2,6,5,7,4b,,
,,2,3,4/8b,,7,6,5,4,3,2,1b<6[8:1]*>4[8:1],,,,
1b-5[8:1],,,,1/4-8[8:1],,,,4/2V46[16:3],,,,7,,7h[4:1],,
,,6-8[8:1],,,,5,,5-1[8:1],,,,4qq5[16:5]/5,,,,
8h[4:1],,,,,,7,,56,,2,,34,,1b/8b,,
,,1,8,2,7,1,8,2-5[8:1]/7-4[8:1],,,,2b/7b,,,,
4>1[8:1],,,,6/4<7[8:1],,,,2/4V25[4:1],,,,6,,6h[4:1],,
,,7-4[32:5],,8,,1,,2,,,,1>4[8:1]/5<8[8:1],,,,
1b/5b,,,,,,1w5[8:1],,1,,,,,,2,,
1-5[8:1]/5,,,8,1,,7,,7-5[12:1]/5-3[12:1],,,,,,,,
{8}
61,2,7,4,53,6,1,8,2-4[8:1],,6-8[8:1],7,5-1[8:1],4,,,
82,7,4,6,17,2,5,3,8-2[8:1],,3-7[8:1],,6-4[8:1],6,1,,
25,6,3,8,17,2,5,4,6-8[8:1],,2-4[8:1],3,1-5[8:1],8,,,
{16}
74,,6<1[8:1],5,7,,6b,,,,4,,38,,2>5[8:1],1,3,,2b,,
,,8,,37,,37,,2b/5b,,2b/5b,,
{4}
,,1h[2:1],,
{16}
3,4,5,6,73,,,,2b,,4b,,5b,,7b,,
{8}
,1b,1b,,
6>1[2:1]/2,,1,,8,,7,,
2h[4:1]/6qq7[16:5],,,,1,1,8-4[8:1],2,8
,,2,2,8<5[8:1],3,8,,3,5,1,8-4[8:1],7-5[8:1],,,,
2,2h[4:1],,7,3,5,46,,
{16}
2,,5,4,6,,37,,,,8b,,8b,,,,
{8}
2<5[2:1]/6,,5,,4,,3,,2/6>1[2:1],,1,,8,,7,,
2<5[2:1]/6,,5,,4,,3,,
6h[4:1]/2pp1[16:5],,,,7,7,8>3[8:1],6,8
,,5,5,4-1[8:1],6,4,,
8-5[8:1],,3,2,1-4[8:1],,6,7-4[8:1],,3V16[16:7]*V16[16:7],2-5[16:5]*-5[16:5],,,,,,
7,5,4,2,,8,8,,
{4}
2b/7b,,,,,,,,,,,,,,,,
{8}
26,26,4/7-4[8:1],4-7[8:1]/7,,1b,1b,,
25,25,7-3[8:1]/3,7/3-7[8:1],,8b,8b>6[8:3],,5b,,,,
{16}
2,3,4,5,2b/6b,,,,8,,4,,2,,6,5,7,3,4,2,5b,,,,3b/7b,,,,,,,,
28,,5<8[8:1],4,6,,5b>2[8:1]/3,,,,5bw1[8:1]/7,,,,5b,,
,,,,7-3[8:1],,,,
7b-5[12:1]/1b-5[12:1],,,,7/1<3[4:1],,,,1/5h[4:1],,,,,,2,,
1-5[8:1]/5,,,8,1<3[4:1],,6,,6h[4:1],,,,,,,,
1b,,6,5,8,,3,4,1,,2/6pp4[8:3],,26,,,,
,,4,,3,,2,,35,,7,,46,,2,,
35,,18,,46,,81,,3,4,2,6,5,7,4b,,
,,2,3,4/8b,,7,6,5,4,3,2,1b-6[8:1]/5-2[8:1],,,,
5b<8[8:1]/1b>4[8:1],,,,1-5[8:1]/5,,,,1/3V57[16:3],,,,8,,8h[4:1],,
,,7-5[8:1],,,,2,,2V48[4:1],,,,8>6[16:5],,,,
7h[4:1],,,,,,7,,56,,34,,1/8,,2b/7b,,
,,1,8,2,7,1,8,2-5[8:1]/7-4[8:1],,,,2b/7b,,,,
4>1[8:1],,,,6/4<7[8:1],,,,2/4V25[4:1],,,,6,,6h[4:1],,
,,7-5[8:1],,8,,1,,2-6[8:1],,,,2>5[8:1]/6<1[8:1],,,,
2b/6b,,,,,,2w6[8:1],,2,,,,,,7,,
8-4[8:1]/4,,,1,8,,2,,2-4[12:1]/4-6[12:1],,,,2b/4b,,,,
{8}
38,7,2,5,46,3,7,1,8-4[8:1],,3-1[8:1]/8,2,5-7[8:1],4,,,
18,2,5,3,81,7,4,6,1-7[8:1],,6-2[8:1]/1,,3v5[8:1]/6,3,8,,
74,3,6,1,82,7,3,5,4-8[8:1],,7-5[8:1]/4,6,1-3[8:1],8,,,
{16}
25,,3>8[8:1],4,2,,3b,,,,5,,61,,6,5,47,,47,,1b/5b,,1b/5b,,
