&title=世界は恋に落ちている
&artist=CHiCO with HoneyWorks
&first=0
&des=uapy
&lv_5=13
&des_5=uapy
&inote_5=
(130){4},,,,{2}5V71[2:1],
3,
4V28[2:1],6,
5pp8[4:3],2,
1pp4[4:3],7,
5h[1:1],6,
4h[1:1],{4}3,5,
{1}5-1[8:3],
{4}E4,E5,E6,C,
1b/8b<5[8:1],{8}3,3h[4:1],,4,{4}4qq8[8:3],
{16}5,,,6,,,{8}7h[4:1],,8,{4}8,
1>4[8:1],{8}6,6h[4:1],,5,{4}5-1[8:1],
5/4,3h[4:1],{2}1>8[4:1],
{8}2,2,3,3,{2}4-7[8:1]*-1[8:1],
{8}8,8,7,7,{4}6v1[8:1],4>8[4:1],
8>4[4:1],{8}7,7,,6,{4}6,
{8}5-1[8:1],5,4,4,2-5[8:1],2,{4}8,
{8}7,7,6,6,{4}5-1[8:1],4/5,
{8}2,2,8,8,7/5,6,5/3pp8[2:1],2,
{4}1h[2:1],,,1-5[8:1],
1/7-3[8:1],7/4-1[8:1],4-7[8:1],4,
2-5[8:1],{8}6,6<1[8:1],,4,{4}4-1[8:1],
4/8<5[8:1],{8}2,2-6[8:1],,5,{4}5-1[8:1],
5/4qq8[8:5],{8}8,8,,,7,7<4[4:1],
,,1,1,,2,{4}3/5,
{8}4>1[8:1],4,5,6,7<4[8:1],7,8,1,
2-5[8:1],2,6-1[8:1],6,{4}4h[4:1],8,
{8}8<5[8:1],8,4,3,2>5[8:1],2,6,6,
7V51[4:1],4,{4}3,{8}2V84[4:1],7,{4}6,
7h[4:1],{8}5,4-1[8:1],,5,{4}5-8[8:1],
2-5[8:1],{8}7,7-4[8:1],,3,{4}3-8[8:1],
{1}3/4q5[2:1]*>5[2:1],
5w1[16:7],
{16}8b-4[8:1],,,7,{8}8,6,{16}5-1[8:1],,,4,{8}5,3,
{16}3-8[8:1],,,4,{8}3,5,{16}5-1[8:1],,,6,{8}5,7,
{16}7-3[8:1],,,8,{8}7,1,{16}2-6[8:1],,,1,{8}2,8,
{16}7<4[8:1],,,8,{8}7,2,{4}3-8[8:1]*-7[8:1],3,
{16}1-5[8:1],,,2,{8}1,3,{16}4-8[8:1],,,5,{8}4,6,
{16}7-4[8:1],,,8,{8}7,1,{4}1-5[8:1],1/5<3[2:1],
4,4,{2}4-8[8:1],
{4}1b-5[8:1],1b/7b-3[8:1],7b/4bw8[8:1],4b,
{8}2-5[8:1],3,2/6-2[8:1],7,6/4-1[8:1],3,4/8-4[8:1],7,
8/6-1[8:1],5,{4}6/2>7[4:1],7<2[4:1],E1,
{8}8-4[8:1],7,8/3-7[8:1],2,{4}1-5[8:1],{8}1/6-2[8:1],7,
{4}8-4[8:1],8/1<1[8:3],{8},,,,5-1[8:1],
6,5/2-5[8:1],3,2/8-4[8:1],7,8/3-7[8:1],2,
3/1-5[8:1],2,{4}1/6<3[4:1],3>6[4:1],E5,
{8}4-8[8:1],4,5,5,6pp4[16:5],6,{4}3qq5[16:5],
{8},,B6,E7,
E
