&title=Eternal Pose
&artist=Asia Engineer
&first=0
&des=TruffleShroom
&lv_5=11
&demo_seek=34.4
&demo_len=25
&des_5=TruffleShroom
&inote_5=
(85){48},,,,,,,,,,,1h[12:7],{4},,{16},{24},{48}1,,,{24}8,7,
,7,{48}8h[12:7],,,7h[24:11],{4},,,{16},,{48},{16}6,
{48},,,,,8/1V75[16:3],,,,,,,,,,,{24}5-3[0.5882##0.2941],,,,,,3-8[0.5294##0.2941],,,,,,5,
,,,,,5h[48:37],{4},,,{16},,,{48},{24}2b,
{48},,,3,4,,,,{24}6,5,,1h[8:1],{12}3,{24},1,{48},4h[48:13],,,7,,,7,,,,6,
,,,,,4,,,,1/3,,3/1,,,{24}6,{48},5,,,5,,,4,,,{24}4,{48},,,,5h[6:1],,,,,,,,,,,,,,,3,
,,{24}4,{48},,,5/7,,,,,,,{24}4,{48},4,,,{12}4h[16:1],{24},8,{48},,,,7,,,5,,,,,,6/4,,,,,{24}7<4[0.5882##0.5294],
{48},3>8[0.4118##0.5294],{1},{16},,,{48}2b,
,,,,,6,,,{24}6,3h[12:1],{48},,,,,3h[16:1],,,,,,1,,,{24}2,{12}5,4h[16:1],
{24},4,{48}5,,,6h[48:7],,,,7,,,,,{12}7/5,{48}6,,,4,,,{24}4,{48},4,,,{6}4h[6:1],{24}2,,,2>6[0.5294##0.4706],
,3-7[0.3529##0.4118],{48},,,,,,,,,,,,,,,,,{16}4h[48:5],{12}3,{48}5,,,6,,,,6h[48:11],,,,,,7,,,,,,,,6,
,,5,,,5bh[24:19],{1},{48},4,
,3,,,{24}3,{48},2h[16:1],,,,,{24}1,,1,,,8h[16:1],,,7,{48},6h[48:5]/5h[48:5],,,,,,,,,,,,,,,{24}4,
3,{48},3,,,4,,,5,,,{24}7h[16:1],{48},6h[24:1],,,,,,,{24}6,,,5,{48}4,,,5,,,,4,
,,{24}5,,,8h[8:1],7,,6,{48},5,,,4h[8:1],,,3,,,,,,4,,,5,,,4,,,{24}3,{48},2,,,1,,,6/4,
,,{24}2/5,,,,5b,{48},4,,,{12}3,{48},,,,,,,,8b,,,7,,,{24}6,{4},{16},,,2V46[8:1],
{48},,{24}7,{48}7,,,7,,,{24}7h[16:1],{48},,,,8,,,8,,,{24}3/1,{48},1,,,2,,,2h[12:1],,,,,,3,
,,{12}3,{24},5-8-3[48:7],,4,{48},4,,,4,,,2h[48:5],,,,,,,,2,,,{24}3/2,{48},4,,,3,,,4,,,{24}5,
{48},5,,,{12}5,{48},,,3-1-4-7[6:1],,,,8,,8h[16:1],,,,,,3,,,{24}3,{12}6h[12:1],{24},6,,,7/6,,,6h[8:1]/7h[8:1],
,,,,,3>8[0.4118##0.3529],{48},,,,,8-4[0.3529##0.4118],,,,,{24}4-7[0.4706##0.3529],{48},,,{16}7<4[0.5294##0.4118],{48},,,,,,,,,,,1h[8:1],,,,,,,,,,,,2/8,
,,,,,,,,{24}4,{48}4,,,3,,,{24}4h[16:1],{48},,,{16}6,6,{48}5/4,,3,,,{24}4/5,{48},6,,,7/8,,,8,
,,{24}8,{48},8,,,,,,,,,{24}8/1,{48},7,,,{24}1/8,2,,6h[16:1]/5h[16:1],{48},,,,6/5,,,5/6,,,{24}3,{48},3h[48:5],,,,,,,,3,
,,{12}8,{24},,,6h[16:1],{48},5,,3/2h[16:1],,,,,,,{24}4,{48}5,,,4,,,,4,,,,,{12}2,{48}4,,,5,
,,,,,,,,,,,2b,,,,,,,,,,,,,,,,,{12}6b,
E
