&title=星を辿れば
&artist=大原ゆい子
&first=0
&des=liansuki
&lv_5=13
&inote_5=(131)
{1},
{8}3q5[8:4],,,4h[2:1],,,,,3q6[8:4],,,4h[2:1],,,,,3qq7[2:1],,,4h[2:1],,,,,
1,5p4[16:7],3,6h[4:1],,,,,
{8}6p4[2:1],,,5h[2:1],,,,,6p3[2:1],,,5h[2:1],,,,,
{8}8qq1[2:1],2,8,3,,5h[8:2],,,1p8[2:1],,,,6h[4:1],,,,3b/5b,,,
{8}4qq4[2:1],4,,,,,5h[4:1],,1-5[16:3],,6,6h[4:1],,
{8}3h[16:6],,,8qq8[2:1],8,,,,,1h[4:1],,3,4/2p4[8:3],,6,6h[8:4],,,,
{8}2,4,8qq4[2:1],,2h[4:1],,,,
3,3-1[8:1]*-5[8:1],,,,8pp1[8:3]/6,,,5,5h[4:1],,,,
{8}3h[4:1]/5h[4:1],,,6h[4:1]/4h[4:1],,,5-8[8:1]/4-1[8:1],,,,,
{8}2/7h[4:1],,,1qq3[2:1],,8,,5,5h[4:1],,,2-6[8:1]/6-1[8:1],,2/6,,,
{16}7,7xh[16:5],,,,,8-4[16:3],,,,3h[2:1],,,,,,,,6,,5h[8:3]/1,,,,,,
{16}8<5[4:1],,,,1,,2h[4:1],,,,4,,3h[4:1],,,,1-5[8:1],,3-7[8:1],,1,,3,,,,
{8}6,3/5,4/2,1>4[16:3],,B5/B6,,1<6[16:3],,B4/B3,1xs5[4:1],,,,1-7-2-6-3-5b[8:7],
{8},,,Cfh[8:5],,,,,,,,,
{16}1>4[8:1],,4<7[8:1],,1,,7,,,,5-1[8:1],,1,,5,,3h[4:1],,2x,,4x,,
2>5[8:1]/5<8[8:1],,,,5qq1[2:1]/2,,
,,,,8hb[4:1],,,,
,,6x,6hx[16:3],,,2,,1/3,,8,,1/7,,6pp4[16:6]/2qq5[16:6],,,,,,,,,,,,,,
{16}7/1,,3,,5,,4,4h[16:3],,,7,,8>3[8:1],,3,,4-1[8:1],,,,8-4[8:1],,,,
2,,1,,8,,1h[4:1]/7h[4:1],,,
,,,2,,4-2[8:1]/8-4[8:1],,,,8-6[8:1]/4,,,,3h[4:1],,,,
5,,1w5[8:1],,,,1,,,,Cf,,,,
{16}8<5[8:1],,5>2[8:1],,8,,2,,,,4-8[8:1],,8,,4,,6h[4:1],,7x,,5x,,
7<4[8:1]/4>1[8:1],,,,4pp8[2:1],,,,1,,
1hb[4:1],,,,,,3,3h[16:3],,,4,,5/6,,7,,8/2,,3pp7[16:6]/7pp3[16:6],,,,,,,,,,,,,,
{16}3/5,,7,,1,,2,2h[16:3],,,5,,4-2[16:1],,5-1[8:1],,4,,5<8[8:1]*>2[8:1],,,,5,,,,1,,
6,,4,,8p4[8:1]/2q6[8:1],,,,8b/2b,,,,3,7,4,8,5,1,6,2<4[16:6]b,B5f,,,,,,,,,,,,
{16}C,,,,6/5,,7,,5/6,,3,,5/4,,6,,4/5,,2,,
4/3,,6,,4/3,,1xq6[16:3],,,,1xp4[16:3]/7,,,,1,,
{16},,2,,3/4,,6,,4/5,,3,,4/5,,7,,6/5,,3,,6/5,,8v6-4[4:1],,
,,1,,2,,3,,5/6,5,7,,6/4,,8,,3/4,4,2,,3/5,,1,,4/5,,3/6,,2/7,,1>4[8:1]/8<5[8:1],,,,1/8,,
{16},,6/3,,2-5[8:1],,,,7,,8-4[8:1],,,,1p8[16:7]/8,,,,1/8,,,,,,,,,,,,,,,,,,
