&title=Ringed Genesis
&artist=Edelritter
&first=0.01
&des=
&des_5=Sancxion vs 3KrAs
&lv_5=14
&inote_5=(160){4},,,,{1}1>8[8:13],
1>4b[8:5],
{4}1>8b[8:13],{12},,,,,,B4,B3,B2,
{1}1x>4[8:5],
{64}1xqq5b[8:5],5xqq1[64:39],{4},,,{16},,,{32},{64}8xpp3b[8:5],
4xpp7[8:5],{4},,,{16},,,{32},{4}4h[8:5]/8h[8:5],
{16},,,,,,,,4,8,4,8,
{4}4V28[16:3],{8}4/8,6,,1/8,{16}2,7,3,6,
{8}4/5h[8:1],3,5/3h[8:1],6,4/6h[8:1],3,5/3h[8:1],6,
4V28>5[2:1],8,8,7,7,6,6,6,
3/5h[8:1],4,6/3h[8:1],5,4/6h[8:1],2,5/3h[8:1],{24}8,7,6,
{8}5V71<4[2:1],4,4,3,3,2,2,1,
8/2h[8:1],7,1/7h[8:1],3,8/2h[8:1],5,{12}7h[6:1]/E1,E2,E3,
{8}5h[8:1]/E4,4x,6/3h[8:1],7,6h[8:1]/4V26-8[4:1],5,{4}4/6,
{8}5h[8:1],2,6/3h[8:1],5,1/7h[8:1],2,6/3h[8:1],{24}8,7,6,
{2}4h[4:1]/5<4[4:1],Cfh[2:1],
{4}8x-5[8:1]*-3[8:1],8,2-4[16:1]/6-8[16:1],2/6,
1p5[8:1]/5p1[8:1],1/5,2-5[8:1]/6-1[8:1],2/6,
8<4[8:1]/4>8[8:1],4/8,2xv5[8:1]/6xv1[8:1],2/6,
4-7[8:1]*-1[8:1],4,8<5[8:1]*>3[8:1],8,
{8}4/8,4/8,7/3,7/3,2/6,2/6,1/5,1/5,
2/6,3/7,4/8,5/1,8/4,7/3,2/6,1/5,
{16}2,2,3,3,4,4,5,5,6,6,7,7,8,8,1,1,
{1}2z6>7b[8:5],
{4}5b>2[8:1],7h[8:1]/5<8[8:1],3h[8:1]/5v2[8:1],7h[8:1]/5V71-6-4v7b[4:3],
5/2xh[8:1],2h[8:1],3h[8:1],3h[8:1],
1b<6[8:1],3h[8:1]/1>4[8:1],7h[8:1]/1v6[8:1],3h[8:1]/1V35v2-4b[2:1],
1/6xh[8:1],6h[8:1],7h[8:1],8xh[8:1]/4xh[8:1],
5b<8[8:1],3h[8:1]/5>2[8:1],7h[8:1]/5v8[8:1],3h[8:1]/5V31-4-6v3b[4:3],
5/8xh[8:1],8h[8:1],7h[8:1],7h[8:1],
1b>4[8:1],7h[8:1]/1<6[8:1],3h[8:1]/1v4[8:1],1/6xh[8:1],
{8}3/7,{16}2,2,6,6,4,4,8,8,6,6,4-8[8:1],4,2,2,
{4}4b>1[8:1],{8}6/4<7[8:1],5,2/4v1[8:1],3,6/4-7-1-6v3b[8:5],5,
4/1x,3,1,3,2,4,{4}2,
8b<5[8:1],{8}2/8>3[8:1],1,6/8-5[8:1],7,2/8-3-5v2-4b[2:1],1,
8/5x,7,6x,8,6,{24}8,7,6,{8}5-3[8:1]*-1[8:1],4/6,
{4}5b<8[8:1],{8}2/5>2[8:1],4,8/5-8[8:1],6,2/5-2-8v3-1b[8:5],4,
5/8x,6,7,5,4b,6b,{4}8b,
{8}6bh[4:1]/8bh[4:1],,,1bh[4:1]/3bh[4:1],,,{4}7bh[4:1]/5bh[4:1],
{8},4bh[4:1]/2bh[4:1],,,{2}E5f/B6/E6/A6/B5/B4/B3/E4/A3,
{1}1>8[2:7],
C,
1>4b[2:3],
,1>8b[2:3],
1>4[2:1],
{8}2/6,{16}4,4,{8}5,3/7,{16}1,1,{8}8,{16}2,2,{8}7,
{16}3,4,2,2,6,5,7,7,1,1,8,8,{4}2/7,
{8}6h[1:1],{16}3x,3x,{8}3x,4,5,5,5,4h[8:9],
{16},,7x,7x,{8}7x,6,5,5,5,5h[8:9],
{16},,2x,2x,{8}2x,3,4,4,4,3h[8:9],
{16},,6x,6x,{8}6x,5,4,4,4,4<8[8:5],
{16},,1x,1x,{8}1x,2,3,3,4,4>8[8:5],
8,{16}7x,7x,{8}7x,6,5,5,4,4V68[8:5],
1,{16}2x,2x,{8}2x,3,4,4,5,5V31[8:5],
8,{16}7x,7x,{8}7x,6,5,5,4,4<4[8:13],
{1}4/8>8b[2:3],
{8},,,,,,,,2b/6b,
{16}4/8,4/8,{8}4/8-4b[8:1],3,8b/2b-6b[8:1],1,2b/8b,5,
3b/7b,{16}5/1,5/1,{8}5/1>5b[8:1],8,1b/7b-3b[8:1],8,7b/2b,1,
1b/5b,{16}3/7,3/7,{8}7/3-7b[8:1],4,3b/5b-1b[8:1],6,5b/2b,3,
{16}4b,5,4,6,3b,5,4,6,2b,5,4,6,1b,5,4,6,
{8}8b<5b[8:1],3,2b/8b>3b[8:1],1,8b/6b,{24}7,6,5,{8}4b-7b[8:1],3,
2b/4b-1b[8:1],3,4b/6b,7,6b/2b,{16}4b/8b,4b/8b,{8}4b/8b,7bx/3bx,
1b>4b[8:1],6,7b/1b<6b[8:1],8,1b/3b,{24}2,3,4,{8}5b<5b[8:3]*>5b[8:3],4x/6x,
5bx,,,,,B7/B6/B2/B3/Ch[4:1],,,7b/3b,
{16}5/1,5/1,{8}5/1-5b[8:1],6,1b/7b-3b[8:1],8,7b/1b,4,
6b/2b,{16}4/8,4/8,{8}4/8V64b[8:1],1,8b/2b-6b[8:1],1,2b/7b,8,
8b/4b,{16}6/2,6/2,{8}2/6-2b[8:1],5,6b/4b-8b[8:1],3,4b/7b,6,
{16}5b,4,5,3,6b,4,5,3,7b,4,5,3,8b,4,5,3,
{8}1b>4b[8:1],6,7b/1b<6b[8:1],8,1b/3b,{24}2,3,4,{8}5b-2b[8:1],6,
7b/5b-8b[8:1],6,5b/3b,2,3bv8b[8:1]/7bv4b[8:1],6b/2b,{4}7b/3b,
{8}1b/5b,{24}3,4,3,{8}4,2/6,{24}7,8,7,8,,,{4}Cf,
{16}2x,2x,5,3,7x,7x,4,6,{8}1w5[8:1],2/8,{4}1,
{8}7b/3bh[1:1],{16}7,7,{8}7,6,5,5,5,5h[8:9],
{16},,3,3,{8}3,2,1,1,1,1h[8:9],
{16},,5,5,{8}5,6,7,7,7,7h[1:1],
{16},,1,1,{8}1,2,3,3,3,3,
4/8,{16}3/7,3/7,{8}3/7,B7/B3,2x/6x,5,3/7,4,
5/1,{16}6/2,6/2,{8}6/2,B6/B2,7x/3x,4,6/2,5,
3/7,{16}2/6,2/6,{8}2/6,B6/B2,1x/5x,3,4/8,6,
{12}5b/1b,3,4bx/2bx,6,{6}5bx/7bx,{12}8b/4b,2,1b/3b,7,{6}8b/6b,
{1}1>1[8:13],
1>5b[8:5],
E7/E3/B7/B6/B2/B3/Cfh[16:0],
E
