&title=Death Moon
&artist=SHK
&first=-0.02
&des=HL
&lv_5=14
&inote_5=(160)
{1},
{8}1,1,1,{16}1,8,1,8,1,8,1,8,1,,
{8}2h,,4h,,6h,,8b,,
{8}8,8,8,{16}8,1,8,1,8,1,8,1,8,,
{8}7h,,5h,,3h,,1b,,
{8}2,2,2,{16}2,1,2,1,2,1,2,1,2,,
{8}3h,,5h,,7h,,1b,,
{8}7,7,7,{16}7,8,7,8,7,8,7,8,7,,
{8}1h,,7h,,5h,,3b,,
{4}24,57,24,57,
{8}2/8,,,{16}6-1[8:1],5,6,,,,,,2-5[8:1],1,
2,,,,,,7-4[8:1],8,7,,,,,,3-8[8:1],4,3,,,,,,
6-1[8:1],5,6,,,,,,2,4,2,1,8,5,6,7,4,3,2,1,5,6,7,8,4,3,2b,,,,,,
2<7[8:1],1,2,,,,,,6>3[8:1],5,
6,,,,,,3-8[8:1],4,3,,,,,,7-4[8:1],8,7,,,,,,
2-5[8:1],1,2,,,,,,7,,
1,2,3,4,1,8,7,6,2,3,4,5,2,1,8,7,
{16}26,,,,4,,4,,,,6,,7,,8,,16,,8,,7,,7h[4:1],,,,1,,2,,3,,
45,,45,,6,,6h[4:1],,,,4,,3,,2,,
8,7,6,5,8,1,2,3,1,8,7,6,1,2,3,4,
57,,7,,4,,3h[4:1],,,,8,,7,,6,,
52,,2,,3,,4h[4:1],,,,6,,7,,8,,
12,,2,,3,,8h[4:1],,,,4,,3,,2,,
5,6,7,8,5,4,3,2,4,5,6,7,4,3,2,1,
{4}86,86,14,23,
13,13,85,76,
17,17,25,34,
24,24,16,87,
{8}86,7,86,7,14,,23,,
13,2,13,2,85,,76,,
17,17,35,35,26,,34,,
34,2,46,7,35,2,48,48,
{8}1,2,3,4,5,6,7,8,1,2,3,4,
(158)5,(156)6,(154)7,(152)8,
(150)1,(148)2,(146)3,(144)4,
(142)5,(140)6,(138)7,(136)8,
(134)1,(132)2,(130)3,(128)4,
(126)5,(124)6,(122)7,(120)8w4[8:1],,,,,,,
(80)
{32}1,8,1,8,1,8,1,8,
1,8,2,7,3,6,4,5,
(160){16}4,5,3,6,2,7,1,8,
1,8,2,7,3,6,5,6,4b,5,3,4,
3b,4,2,5,{32}2b,3,4,5h[32:5],,,,,8b,7,6,5,4,3,2,1,
{16}8-5[8:1],,1,,8,,1,,
1-4[8:1],,8,,1,,8,,
7-4[8:1],,8,,7,,8,,
8-3[8:1],,7,,8,,7,,
6,5,6,5,6,5,6,5,6h[2:1],,4,,3,,2,,
1,8,1,8,1,8,1,8,1h[8:3],,,,{24}8,7,6,5,,,
{16}
3-8[8:1],,4,,3,,4,,
2-7[8:1],,3,,2,,3,,
4-7[8:1],,3,,4,,3,,
8-5[8:1],,4,,8,,4,,
3,4,2,5,3,4,2,5,3h[8:3],,7,,8,,1,,
2,4,2,5,2,4,2,5,2h[8:3],,,,{24}3,4,5,6,,,
{8}
1-5-2[8:3],1,2-4-7[8:3],2,,,,,
2-6-3[8:3],2,3-5-8[8:3],3,,,,,
3-7-4[8:3],3,4-6-1[8:3],4,,,,,
4-8-5[8:3],4,5-7-2[8:3],5,,,,,
5-1-6[8:3],5,6-8-3[8:3],6,,,,,
6-2-7[8:3],6,7-1-4[8:3],7,,,,,
7-3-8[8:3],7,8-2-5[8:3],8,,,,,
8-4[8:1],8,1-3-6[8:2],1,8,8,7,7,
{96}3,,,,,4,,,,,,,,,,,,,,,,,,,
{24}7,6,5,,,,
{32}2,3,4,,,,,,
{48}8,,7,,6,,5,,,,,,
{8}2,2,13,2,85,,76,,
7,7,86,7,14,,23,,
82,82,64,64,73,,65,,
{16}
1,2,3,4,1,8,7,6,8,1,2,3,8,7,6,5,
42,,2,,5,,6h[4:1],,,,1,,2,,3,,
47,,7,,6,,5h[4:1],,,,2,,1,,8,,
87,,16,,2,,2h[4:1],,,,4,,5,,6,,
{16}
3,4,5,6,3,2,1,8,2,3,4,5,2,1,8,7,
4,3,2,,5,,5,,6,,6,,7,,7,6,5,,
3,,3,,2,,2,,1,,1h[4:1],,,,
8,,7,,6,,5,,4,,3,,2,,1,,
87,,87,,56,,56,,34,,34,,12,,1h[128:56]/2h[128:56],,,,,,,,,,,,,,,,,,
{16}
6h[1:2],,,,,,,,3,2,1,8,7,,5,4,3,2,1,8,7,,
5,4,3,2,1,8,7,,5,4,3<3[2:1],,,,,,,,,,,,,,,,
{8}
2b,6h[16:1],,4,,,3,,1b,5h[16:1],,4,,,3,,
7b,4h[16:1],,5,,,6,,8b,3h[16:1],,5,,,6,,
4b,4h[16:1],,5,,,4,3,2b,2h[16:1],,5,,,4,5,
6b,6h[16:1],,8,,,7,,8b,,,6,{16}1,8,1,8,1,8,1,8,
{8}
1-5[8:1],2,8-4[8:1],7,2-5[8:1],1,7-4[8:1],8,
3-6[8:1],2,7-2[8:1],8,5-1[8:1],4,8-4[8:1],7,
2-6[8:1],3,1-5[8:1],8,2-6[8:1],3,1-5[8:1],8,
3-7[8:1],2,4-8[8:1],5,3,2,17,,
2>4[8:1],8,2-6[8:1],8,,,84,,
4<6[8:1],2,4-8[8:1],2,,,26,,
6<8[8:1],4,6-2[8:1],4,,,48,,
8>2[8:1],6,8-4[8:1],6,,,62,,
{8}
5b-1-6[8:3],5,4-8-3[8:3],4,,,,,
4b-8-5[8:3],4,3-7-2[8:3],3,,,,,
3b-7-4[8:3],3,2-6-1[8:3],2,,,,,
2b-6-3[8:3],2,1-5-8[8:3],1,,,,,
1-6[80#16:1],6-2[80#16:1],2-5[80#16:1],5>3[80#32:1],,,,,
7>1[80#16:1],1-6[80#16:1],6-2[80#16:1],2-4[80#32:1],,,,,
5-2[80#16:1],2-6[80#16:1],6-1[80#16:1],1<7[80#32:1],,,,,
3<5[80#16:1],5-2[80#16:1],2-6[80#16:1],6-8[80#32:1],,,,,
{96}1,,,,,2,,,,,,,,,,,,,,,,,,,
{24}7,6,5,,,,
{32}2,3,4,,,,,,
{48}8,,7,,6,,5,,,,,,
{32}2,3,4,5,6,7,8,1,2,3,4,5,6,7,8,1,2,3,4,5,6,7,8,1,2,3,4,5,6,7,8,1,2h[4:3],
,,,,,,,,,,,,,,,,,,,,,,,,,,,,,,,
{16}
1,8,2,7,1,8,2,7,1,8,2,7,1,8,2,7,1,8,2,7,1,8,2,7,1,8,2,7,1,8,2,7,1,8,2,7,1,8,2,7,1,8,2,7,1,8,2,7,
{32}1bw5[8:1],28,37,46,5,,,,,,,,,,,,,,,,,,,,
