&title=アクト (feat. Daoko)
&artist=ギガP /TeddyLoid/Daoko
&first=0.117
&des=9V_Y2-6
&lv_5=13
&inote_5=(125){8},,,,4,3,7/2q4[1:1],,,,6,,,,5,,7h[4:1],,,,4,3,2q4[1:1]/7,,,,6,,,,5,6,7h[4:1],,5,4,
{16}3,3,,5,2,,4,4,3-5[8:1],,5,,6h[8:1],,,,7,7,,5,6,,4,4,6-4[8:1],,3,,2h,,,,1-5[8:1],,,,5,,,,6-8[8:1],,,5,6,,4V63[4:1],,,,8h[4:1],,,,,,2,,1/3,,4,,57,,6h[8:3],,5,,4,,3h[8:3],,,,4,,5,,6p4[4:1],,,,4,,,,3>6[4:1],,2h[4:1],,,,,,,,4-1[8:1],,,,45,,,,7-4[8:1],,,8,7,,1,,5-7[8:1],,1,,5,,2,,3h[4:1],,8,,7,,6h[8:3],,,`,5,,4,,3h[4:1],,,,4,,5,,2-6[8:1]/6-1[8:1],,,,6qq3[2:1]/2,,,,8,,8h[4:1],,,,,,,,6>4[8:1]/2,,,,8,,,,
{8}1-5[8:1],5,6,,7<5[8:1]/5,,3,,2-6[8:1],6,7,,5/8<5[8:1],,4,,3>8[8:1],4,5V71[4:1],,
{16}1V35[4:1],,,,5,,,,1,,
{16}2h[16:3],,,4,,,
{8}3-5[8:1]/5,,6,7,8-5[8:1],5-8[8:1],,,3-1[8:1],,7,6,5-8[8:1],8-5[8:1],,,2-4[8:1],,6-8[8:1],,5-1[8:1],,7-5[8:1],8,2-6[8:1],,2-7[8:1]/1-4[8:1],,2/1-5[8:1],,8b,,
{16}7h[16:3],,,5,6,,4,4,6h[8:1],,5,,7h[8:1]/4h[8:1],,,,3h[8:1],,4,2,5h[8:1],,4,4,6>3[8:1],5,,2,2h[8:1],,,,4h[8:1],,3,,25,,2,,6v1[8:1]*v3[8:1],5,,,6,,,,8,5h[8:1],,7,6,,3,4h[8:1],,2,3,,5-3[8:1]/6b,,,,8-4[8:1],,,,8b/2-8[8:1],,,,5-1[8:1],,,,1b,,2,,3h[8:1],,8,,5>2[8:1],,7,7,5,6h[8:1],,1,7,,28,,3h[8:1],,1,1,2,2,8,8,3h[8:1],,7,3,6h[8:1],,5,,7h[8:1],,8,8,7,7,1,1,6h[8:1],,2,5,4h[8:1],,,,
{24}4b/5b,6,7,8,1,2,3/4h[8:1],,,,,,4b/5b,6,7,8,1,2,3/4h[8:1],,,,,,4b/5b,,,
{16}6,5,7,,3,,2-4[8:1],,4-8[8:1],,5,,6,,7,7,2,1,3h[8:1],,7,8,6-2[8:1],,45,,6,,4,,3,3,1,8h[16:3],,,4,4,7,6h[8:1],,5,5h[8:1],,6,,
{24}6b/5b,7,8,1,2,3,4/5h[8:1],,,,,,5b/6b,7,8,1,2,3,4/5h[8:1],,,,,,
{16}56,,3,4,2V48[4:1],,5,,6-4[8:1],,7,,6,,1,,2,2,4,3,7,7,5,6,3,3,4,2,5h[8:1],,4,,
{12}6,7,8,3,2,1s5[4:1],
{16}8b-5[8:1],,,,,,,,7h[8:1]/4h[8:1],,,,6h[8:1],,2,,3h[8:1]/5h[8:1],,,,4h[8:1],,1,,2h[8:1]/5h[8:1],,,,6h[8:1],,3,,7-5[8:1]/4-1[8:1],,8,,,,,,2h[8:1]/5h[8:1],,,,3h[8:1],,6,,7h[8:1]/4h[8:1],,,,5h[8:1],,8,,7h[8:1]/4h[8:1],,,,3h[8:1],,6,,
{12}
2pp4[8:1]/5<8[8:1],1,1,,,,
{8}7h[16:1]/5h[16:1],7h[16:1]/5h[16:1],8h[16:1],8h[16:1],2h[16:1]/4h[16:1],2h[16:1]/4h[16:1],1h[16:1],1h[16:1],6h[16:1]/5h[16:1],8h[16:1],3h[16:1]/4h[16:1],1h[16:1],2/7-3[8:1],18,,,2h[16:1]/4h[16:1],2h[16:1]/4h[16:1],1h[16:1],1h[16:1],7h[16:1]/5h[16:1],5h[16:1]/7h[16:1],8h[16:1],8h[16:1],3h[16:1]/4h[16:1],1h[16:1],6h[16:1]/5h[16:1],8h[16:1],7/2<7[8:1],,
{16}6,,5,,4-7[8:1],,8,8,4-8[8:1],,1,,4,,,,26,3,4,,7-4[8:1],,4,4,7-3[8:1],,3,,7,,,,2-5[8:1],,1,,
2/6-1[8:1],,7,7,
3-5[8:1],,2,,3/6-1[8:1],,7,7,4-8[8:1],,3,,6-1[8:1],,7,7,2-5[8:1],,3,,82,,7,7,5w1[8:1],,,,5b,,,,37,,,,6h[8:2],,5,,4,,,,7h[4:1]/3,,,,5,,,,6h[4:1],,5,,4,,,,7<5[8:1]/3>1[8:1],,,,7,,,,4h[4:1],,1,,2,,,,7<5[8:1]/3>1[8:1],,,,7,,,,4q8[8:1],,1,,2,,3,,4>5[4:6],,,,,,,,7h,,,,
{8},,,,,,8h,,,,7h[4:1],,5h[4:1],,3h[4:1],,1-5[8:1],,1-6[8:1]/8-3[8:1],,1/8-4[8:1],,1-6[8:1]/8-3[8:1],,1b>8[4:3]/8b,,,,,,,,,,7h[4:3],,5,,4,,3,,2h[4:3],,3,,4,,5,,6h[4:1],,5,,
{16}3-8[8:1],4,,,6,,,,5h[16:3],,,2,4,,3-6[8:1],,6-3[8:1],,,,7b,,,,6h[16:3],,,5,7,,3,3,4,2,,5,4,,36,,7h[8:1],,5,6,4h[8:1],,5,5,3,4,,2,5,,34,,2,,2h[8:1],,1,,1h[8:1],,8,,8h[8:1],,7,,7h[8:1],,
{24}8,1,2,3,4,5,7,8,1,2,3,4,8,1,2,3,4,5-2[110#48:5],8b-5[8:1],,,
{16},,8/5-1[8:1]*-1[8:1],,,,2,,,,3>8[8:1],3,8,8,3b,,7,,6-4[8:1],,8,8,6,,1,,2-6[8:1],,6-4[8:1],,7h[8:1],,,,8h[8:1],,3,4,2,,6,5,7-3[8:1],,18,,7,,1,,2,2,4,5h[16:3],,,1,1,6,7h[8:1],,2,2,,38,,
{24}5b/4b,6,7,8,1,2,3/4h[8:1],,,,,,4b/5b,6,7,8,1,2,3/4h[8:1],,,,,,4b/5b,,,
{16}6,5,7,,3,,2-4[8:1],,4-8[8:1],,5,,6,,7,7,5,6,2,2,4,3,6,6,5,7,4h[8:1],,5,,
{12}3,2,1,6,7,8z4[4:1],
{16}1b-4[8:1],,,,,,,,2bp5[8:1]/5,,,,6,,7,,8q5[8:1]/5,,,,4,,3,,2h[8:1],,4,3,5h[8:1],,4,,6h[8:1],,5,,47,,3,,5/2v5[8:1],,,,6,,7,,5/8v5[8:1],,,,4,,3,,2h[8:1],,4,3,5h[8:1],,3,4,2h[4:2],,1h,,8h,,7h,,6b<4[4:15],,,,,,
E
