&title=ループザルーム feat. 初音ミク
&artist=ルシノ
&first=3.09
&des=Alix
&lv_5=13
&inote_5=(162)
{8}
3,3,34,,6,6,6<1[8:1]/5,,3<6[8:1],,8-4[8:1],,1,,36,,85,,7,7,78,,2,2,1<6[8:1]/2,,4,,
E2,E6,E4,E8,2,,7,7,75,,2/4<7[8:1],,2^7[8:1],,5-1[8:1],,4,,72,,14,,6,6,6/5-2[8:1],,8<5[8:1],,2-6[8:1],,8-3[8:1]*-5[8:1],,,,6x/2x,,
3h[8:4],,,4,5h[8:3],4,3,2,1<5[8:2],,5>1[8:2],,1-7-5[8:2],,5,,1h[8:4],,,2,3h[8:3],2,1,8,7>3[8:2],,3<7[8:2],,7-1-3[8:2],,3,,8h[8:4],,,7,6,5,4h[8:2],5,6-8-2[8:2],,2-8-6[8:2],,6,,4-8[8:1],,5h[8:4],,,1,2,3,45,6,7-3[8:1]/8,,1-6[8:1]*-4[8:1],,,,8x/2x,,
5<8[8:13],,E5,,E6,,E7,,E8,,E1,,E2,,E3,,
4>1[8:13],,E4,,E3,,E2,,E1,,E8,,E7,,E6,,
4h[8:2],3,E2,,5h[8:2],6,E8,,4h[8:2]/3,2,E1,,5h[8:2]/6,7,E1,,34,2,65,7,
{16}
1,8,2,7,3,6,4>5[8:5],5,C1f,,
,,,,,,,,,,,,,,
{8}
3b/4b,2,65,7,24,1,75,8,1,2,7-4[8:1]/3-6[8:1],,73,,8,7,6-3[8:1]/2-5[8:1],,26,,1,2,7-4[8:1]/3-6[8:1],,73,,8,7,6-3[8:1]/2-5[8:1],71,26,,
8h[8:1]/7b,5,1h[8:1]/2,4,8h[8:1]/6,5,1h[8:1]/3,4,5,6,7-4[8:1]/3-6[8:1],C1,,,
8,7,6-3[8:1]/2-5[8:1],C1,,,1,2,7-4[8:1]/3-6[8:1],C1,,,2-8[8:1],7,6-1[8:1]/2-5[8:1],,,,
7b/3b,,5,5,45,,1-6[8:1]/2,,4>1[8:1],,7-3[8:1],,8,,54,,72,,6,6,6-2[8:1]/5,,4-8[8:1],,7<4[8:1]*>2[8:1],,,,E2,E6,E4,E8,1,,3,3,34,,7<4[8:1]/8,,2q6[8:1],,8-4[8:1],,1,,72,,16,,4,4,4/5<8[8:1],,4>1[8:1],,7-3[8:1],,1w5[8:1],,,,8b/2b,,
6p4[8:6]/4,,,,,,,,1p7[8:6],,,,,,,,5p3[8:6],,,,,,,,1h[8:6],,,,8,,7,,4q6[8:6]/6,,,,,,,,
7q1[8:6],,,,,,,,3q5[8:6],,,,,,,,8h[8:4],,1,,E3/D3,E5/D5,E7/D7,E1/D1,4>1[8:13]*>1[8:13],,E4,,E3,,E2,,E1,,E8,,E7,,E6,,5<8[8:13]*<8[8:13],,E5,,E6,,E7,,E8,,E1,,E2,,E3,,
{16}
4,,4,,6,5,6,,7,,7,,3,4,3,,2,,2,,6,5,7,,3,4,2,,81,,72,,4,5,4,5,3,6,3,6,2,7,2,7,1,8,1,8,
{8}2q8[8:2],,8q7[7:2]*>7[7:2],,,,,,
3h[8:1]/4b,1,6h[8:1]/5,8,3h[8:1]/5,1,6h[8:1]/4,8,1,2,3>8[8:1]/7<4[8:1],,37,,
8,7,6<1[8:1]/2>5[8:1],,26,,1,2,3>8[8:1]/7<4[8:1],,37,,8,7,6<1[8:1]/2>5[8:1],15,26,,
2h[8:1]/1b,4,7h[8:1]/8,5,2h[8:1]/8,4,7h[8:1]/1,5,
2>5[8:1]/6<1[8:1],,2q7[8:1],,1x,,8<5[8:1]/4>1[8:1],,8p4[8:1],,1x,,
7<4[8:1]/3>8[8:1],,7p3[8:1],,8x,,1h[8:1]/6h[8:1],,E4,E5,E6,,
1b/8b,,
3,4,56,7,81,7,6/5-2[8:1],,8-4[8:1],8,1-5[8:1],7x,7x<4[8:1]*>2[8:1],,,,3,3,45,6,78,6,5/4-1-6[8:2],,6-1-4[8:2],,4,,5w1[8:1],,5b,,,
3,42,6,57,81,2-6[8:1]/4,,4-8[8:1]b/2,,1-5[8:1]/4,,7h[8:2]/1,,2hx[8:2],4,7hx[8:2],5,1hx[8:4],8x,8x,8x,8bw4[8:1],,,,34,82,65,71,3b/4b-7[8:1],,2-6[8:1],2,4-8[8:1],,2-6[8:1],2,4-1[8:1],,3x-6[8:1]b,3x,8,A7,A1,,
6/5-2[8:1],,7-3[8:1],7,5-1[8:1],,7-3[8:1],7,5-8[8:1],,6x-3[8:1]b,6x,1,A2,A8,C1,6,6,
57,8,2,2,34,5,2,2,81,7,6-1[8:1],2x,2x>5[8:1],,7,7,8p4[8:1],8,2,2,3<6[8:1],3,8-5[8:1],8,1-4[8:1],1,8w4[8:1],8,8b,,
2b/6b,,35,4,3>8[8:1]/5,,7<3[8:2],,3<7[8:2],,1-5[8:1],,1,,82,,73,,64,5,6<1[8:1]/4,,
2>6[8:2],,6>2[8:2],,8-3[8:1]*-5[8:1],,8,,7x/1x,,
6/2h[8:4],,E4,C1,E8,,6h[8:1],,5h[8:1]/4h[8:1],,4h[8:1]/3h[8:1],,6h[8:1]/5h[8:1],,81,,7h[8:4]/3,,E6,C1,E2,,3h[8:1],,5h[8:1]/4h[8:1],,8h[8:1]/1h[8:1],,E7/E3/C1h[8:2],,,,
