&title=トリックハート
&artist=MIMI
&first=0
&des=
&des_5=ckbbbbb
&lv_5=13+
&inote_5=(150){4},,,,,,{2}1-4<5-8>1b[4:5],
,,,5qq5pp5[4:5],
{8},,,,,,,,,1,
2,3,{16}3h[16:3],,,4,,,{8}2/5h[8:3],
,4,4,4,{16}6h[16:3],,,5,,,{8}7/4h[8:3],
,5,5,5,{16}3h[16:3],,,4,,,{8}5/2q4[8:3],
,6,6,6,{16}6h[16:3],,,5,,,{8}4/7p4b[8:3],
,3,{4}3,{8}B3,B4,B5,B6,
E3,E4,E5,E6,A2,A3,A4,A5,
A6,A7,{4}C,{2}E8fh[1:1],
E4h[2:1],C,
{4},E1,{8}7/2>5[8:1],{16}1,8,{8}2,8,
2/7-4[8:1],8,7/1,2,5/3,{16}3,4,{8}3V17-5b[4:1],7,
{4}6,{8}8,7,6/B2/B3/E3,{16}5,4,{8}5,3,
{4}2h[4:1]/B7/E7/B6,{8}1,8,7-4b[8:1],8,3-6[8:1],2,
{4}C,B2,{8}7<4b[8:1],{16}8,1,{8}7,1,
7/2-5[8:1],1,2/8,7,4/6v1b[8:1],5,6/4>6[4:1],3,
{4}4,{8}B7,B5,{16}3h[4:1],,,4,{8}4,5,
{4}6h[4:1],{8}5,4,{4}3q5b[4:1],5<2[4:1],
{8},B6,{4}B5,{8}5,{16}3,4,{8}3qq3[4:1],5,
{2}4pp4b[4:1],{8}3,{16}3,4,{4}3>6[4:1],
6q3[4:1],C,{8}5,{16}5,4,{4}5V71[4:1],
1V35[4:1],5q1[4:1],{8}1pp6b[8:3],2,{4}3,
5,{8}4,3,2>5[8:1],{16}1,8,{8}2,8,
3/7-5[8:1],8,7/1,2,5/3,{16}3,4,{8}3>5[4:1],6,
3,4,{4}4-7[8:1],4/3,5-2[8:1],
5/6,4qq4b[2:1]*pp4[2:1],{2}4b,
{8},,5,5,4,{16}3,4,{8}3,5/2,
3,4,5,6,7,{16}8,5,{8}8,7/4,
{4}6/3h[4:1],5-1b[8:1],2,4-8[8:1],
7,6h[2:1],{2}3p2b[4:1],
{8},,4,4,5,{16}6,5,{8}6,4/7,
6,5,4,3,2,{16}1,4,{8}1,2/5,
{4}3/6h[4:1],3qq4b[4:1],7,6p5[4:1],
2,3,{2}5q6[2:1]/4p3[2:1],
,3v6[1:2],
,,,7v2b[4:7],
{8},,,,,,,,,4,
4,4,{4}3,2-5[8:1],
2/8,{8}4,5,6,7,{4}8-4b[8:1],
{2}8/1h[8:3],{64}7p4b[2:3],2q5[2:3],{1},{4},,,{16},,,{32},{16}6x,
,,6x,,,{8}6x,
,6x,{4}7x/5x,{16}3,,,3,,,{8}3,
,3,{4}2/4,{16}2-4[8:1],,,4,{8}2,5,
7x-5[8:1],5x,7x,4x,3/6,3/6,6/3,3/6,
6/3,B3,{4}E7/B7/B6,{8}2V46[4:1],{16}1,8,{8}2,1,
2-7b[8:1],2,3,3,6,{16}4,4,{8}5<3b[4:1],7h[4:1],
{4}5,{8}6,6,5/4,{16}3,4,{8}3,2,
6/1,{16}7,8,{8}7,6,8-5b[8:1],1,2-5[8:1],2,
{4}C,B2,{8}7<4b[8:1],{16}8,1,{8}7-3[8:1],1,
7/2-5[8:1],1,2/8,7,{16}6xv1b[8:1],5x,4x,3x,{4}6/2x<4[4:1],
2,{8}B7,B5,{16}3h[4:1],,,4,{8}4,5,
6h[4:1],5,5,4,{4}3q5b[4:1],5<2b[4:1],
{8},B6,{4}B5,{8}3,{16}3,4,{8}3-8[8:1],2,
3/4-7b[8:1],5,4/3,2,{16}3,5,4,6,{8}5-1b[8:1],7,
{4}5/6<3[8:1],6,{8}4,{16}4,5,{4}4-1b[8:1],
4/6,A7/D7/A6,E8/B7/B6/E6,E2/B2/B3/E4,
A2/D3/A3,{8}5,3,7/2>5b[8:1],{16}1,8,{8}2-6[8:1],8,
2/7-5[8:1],8,7/1,2,3-7b[8:1],{16}6,6,{8}3>5[4:1],5,
3,4,{4}4-8b[8:1],4/3,5-1[8:1],
5/6,3x-6<7-2>3b[4:3],{2}5b,
{8},,,,B2,D2,D3,B2,
D2,D3,B2,D2,D3,B2,D2,D3,
B2,D2,D3,B2,{2}Ch[4:7],
{8},,,,,,,,,,,,E8,
B6,A6,A7,
E8,B6,A6,A7,E8,B6,A6,A7,
E8,B6,A6,,A2,A3,B3,E2,
A2,A3,B3,E2,A2,A3,B3,E2,
A2,A3,{4}B3,{2}7xqq6b[2:3]/2xpp3[2:11],
{8},,,,,,,,,,,,E6,
E7,{4}E8,
{8}E7,E8,{4}E1,{8}B7,B8,{4}B1,
B7,B6,5,5,
5,5,6,6,
6,B7h[8:1],{8}4,4,4,4,
3,3,3,3,2,{16}1,8,{8}1,{16}7,2,
{8}7,{16}3,6,4,5,4,5,{4}4>1[8:1]*<6[8:1],4b,
{8}8-3[8:1],7,8/6,5,3v8[8:1],{16}4,5,{8}3>5[4:1],7,
{4}6,{8}8,7,6/4,{16}5,5,{8}4,3,
4/2,{16}3,3,{8}4,5,6-4[8:1],7,6/2-7[8:1],3,
{4}2,{8}5,6,2/7<4[8:1],{16}8,1,{8}7-3[8:1],1,
7/2V48[16:3],1,{4}2/7-5[8:1],{8}7-3[8:1],1,7/2>5[8:1]*q6[8:1],1,
{4}2,{8}7,7,{16}6h[4:1],,,5,{8}5,4,
3h[4:1],4,5,6,{4}7q1[4:1],1>6[4:1],
{8},,,,3,{16}3,4,{8}3-8[8:1],2,
3/4-7[8:1],5,4/3,2,{16}3,5,4,6,{8}5>1[8:1],7,
{4}5/6-2[8:1],6/5,{8}4,{16}4,5,{4}4-1<8[4:1],
8-5>4[4:1],5,{8}7,6,{4}5h[2:1],
4,{8}4,3,7/2>5[8:1],{16}1,8,{8}2-6[8:1],8,
2/7-5[8:1],8,7/1,2,3/5-1[8:1],{16}4,4,{8}5>7[4:1],4,
5/7,6,{4}5-2[8:1]*-1[8:1],5,4-7[8:1]*-8[8:1],
4,5pp5b[4:3]*qq5[4:3],{2}5b,
E
