&title=元祖! バンドリちゃんのテーマ
&artist=織田あすか(Elements Garden)
&first=0.01
&des=雙木 きみの
&lv_5=14
&inote_5=(211)
{1},,
{8}8b/2b-5[8:1],,5,7h[2:1],,5,4,3,
{8}2h[8:3],6,5,4p3[4:1],,5,6,7,
{8}7-4[8:1],,4,2h[2:1],,4,5,6,
{8}7h[8:3],,4,2-6[8:1],,6,8-4b[8:1],,
{8}8b-5-2p6[2:3]*-3-6q2[2:3]/Cf,,,,,,,,
{8},,,,,,,,
{8}5/3,6,7,8/2,,7/1qq3[8:3],6,5h[8:7]/1,
{8},,,,2h[4:1],,,,
{8}1/7,2,3,4/6,,7/3,6,5/2,
{8},6/4,8h[4:1],,4-2^1[8:1],1v3[8:1],8,7,
{8}5,5pp4[4:1],,4>7[4:1],,,,,
{8}3,3qq4[4:1],,4<1[4:1],,,,,
{8}7h[4:1],,4h[4:1],,6,2h[4:1],,8h[4:1],
{8},3x,E8,E2,E7,E3,E6,E4,
{8}5xbh[16:3],,,4b/3h[8:11],,,E5,,
{8},,E6,,,,E7,,
{8}8b/4bh[16:3],,,6h[4:5]/5b,,,E5,,
{8},,E4,,,1x,3x/7x,,
{8}5-7[8:1]/4,,2,,1-3[8:1],1,4,,
{8}6-8[8:1],,3,,2-4[8:1],2,5,,
{8}6v1[8:1],,3,,2,3,8-5b[8:1]/4,,
{8}5x-2b[8:1],,2x-7b[8:1],,7x-4b[8:1],,4x-8b[8:1],,
{8}3b>1[8:1],,7x,,4h[4:1]/5,6,7,,
{8}3>1[8:1]/5,,7,,4h[4:1]/5,6,7,,
{8}6<8[8:1]/4,,2,,5h[4:1]/4,3,2,,
{8}6<8[8:1]/4,,2,,3,5,2-6[8:1],6,
{8}2b/8xb,,7pp4[8:3],5b/7xb,,4,3,2,
{8}3,3,4/6,6,{16}7x,1x,7x,,2v5b[8:1],,8,,
{8}6h[4:1]/2b,,4xh[4:1],,5,7h[4:1],,3h[4:1],
{8},4,1/7,7,4/5,5,2/8,8,
{8}3h[4:1],,5h[4:1],,4,2h[4:1],,6h[4:1],
{8},5,8/2,2,5/4,4,7/3,3xh[4:1],
{8},5,5h[4:1],,4h[4:1],,3h[4:1],,
{8}1,1>5[4:1],,6,8x,8x,7x,6xh[4:1],
{8},4,4h[4:1],,8h[4:1],,3h[4:1],,
{8}7-4[8:1],1qq3[8:3],7,1,,,,5xh[4:1],
{8},3,3h[4:1],,4h[4:1],,5h[4:1],,
{8}7,4h[4:1],,6,,4pp8[8:3]/5,,4/2x,
{8},3x,3xh[4:1],,7h[4:1],,4h[4:1],,
{8}6,6,3,3v8[8:1],5,5,,,
{8}1-4[8:1]/7,,1/5,,6,7/4,7/4,,
{8}8-5[8:1]/2,,8/4,,{16}3,4,3,4,{8}3,,
{8}1>4[8:1]/5,,1/7,,8,7/4,7/4,,
{8}8<5[8:1]/4,,8/2,,3,4b/6b,8b/5b,,
{8}6h[8:3]/4,4,4,3h[8:3],7,6,5,4/2,
{8}3h[8:3]/5,5,5,6h[8:3],2,3,4,5/7,
{8}8xh[2:1],,B4/E4/B3,,2xh[2:1],,B6/E6/B5,,
{8}7xh[2:1],,B1/B2/E2,,4xh[4:1],,E8/B8/B7,,
{8}5b>5>5[1:2]/Cf,,,,{48},,,,,,{8},,,
{8},,,,,,,,
{8}4x,,4x,,3/6,2V48[4:1]/7,4/5,2b/8b,
{8},5,6h[4:1],,1-3[8:1],5-1[8:1],1,5,
{8},4,8/3,7,6,5/1v6[8:1],2,1/3,
{8},5,5>2[8:1],6,7,8,8<5[8:1],1,
{8}2h[4:1],,4,6,5/3,7,6/4,8,
{8}7x-2b[16:1]/2x-4b[16:1],7x/2x,,,1x-5b[16:1],B2/E3/A2/D3,,,
{8}5x-3>2b[16:1],E8/B8/B1,,,1xq5b[16:1],D8/E8/B7,,,
{8}6xh[4:1],,1xh[4:1],,7,5,6/1,3,
{16}2,8,{8}1,{16}7,5,{8}6,3,7V51[4:1]/2,5/4,7b/1b,
{8},4,3h[4:1],,8-6[8:1],4-8[8:1],8,4,
{8},5,1/6,2,3,4/8v3[8:1],7,8/6,
{8},4,4<7[8:1],3,2,1,1>4[8:1],8,
{8}7h[4:1],,5,3,4/6,2,3/5,1,
{48}E8,B7,B6,E6,,,{8},{48}E2,B2,B3,E4,,,{8},{48}8x,E8,B7,B6,E6,,{8},{48}1xv6b[8:1],E2,B2,B3,E4,,{8},
{8}1xb/4xbh[8:1],,,2x<3b[8:3]/5x,,2x/7x,6xh[4:1],,
{8},,7/5,{16},,{8}4/3,,2/8>2v3<5-1b[4:3],{16},,
{8}6h[4:1]/8b,,,,7xh[8:1],,,8x,
{8}2b,1,2,2,6/2,2,5-7[8:1]/2,2,
{8}3x-1[8:1],4x,5x-7[8:1],4x,3x-1[8:1],4x,5x,6x,
{8}7x<4[8:1],4,3,2,1q5[8:1],5,6,7,
{8}8p4[8:1],4,3,2,1,2-5[8:1],5-1[8:1],6b,
{8}7b,8,7,7,3/7,7,4-2[8:1]/7,7,
{8}6x-8[8:1],5x,4x-2[8:1],5x,6x-8[8:1],5x,4x,3x,
{8}2x>5[8:1],5,6,7,8p4[8:1],4,3,2,
{8}1q5[8:1],5,6,7,8h[8:1],2,4h[8:1],6,
{8}5/7,3,4/6,1,3/5,7,6/4,8,
{8}5/3,{16}7,4,{8}6,8/2,3/5,{16}4,5,{8}2,,
{8}7h[4:1]/1b,,3,4/6,{16}7,5,{8}6,2,4,
{8}1/7,6,5,3h[4:1],{16}4,5,{8}6,2-5[8:1],8,
{8}7b/2b,,6,5/4,,7/1,2/6,3/5,
{16}4,6,4,6,4,6,2,7,3,5,3,5,3,5,,,
{32}1b-5-2-6[2:3]/8b-4-7-3[2:3],2b/7b,3b/6b,4b/5b,{8},,,,,,,
{8},,,,,,,,
{8}4/6,3,2,1/7,,2/8pp6[8:3],3,4h[8:7]/8,
{8},,,,7h[4:1],,,,
{8}8/2,7,6,5/3,,2/6,3,4/7,
{8},3/5,1h[4:1],,5-7^8[8:1],8-4[8:1],1,2,
{8}3,3qq5[4:1],,5b<2b[4:1],,,,,
{8}6,6pp4[4:1],,4b>7b[4:1],,,{48}A6,D6,A5,D5,A4,D4,A3,,,,,,
{8}Cf,,,,,,,,
{8}3b>1b[8:1],5b<7b[8:1],3b,5b,,4bv7b[8:1]*v1b[8:1],4b,4b/Cf,,
{8},,,,,,,,
