&title=ドレミファクトリ一!
&artist=U149
&first=0.24
&des=終わらない物語
&lv_5=13
&inote_5=(167)
{1},,,,,,,,,,
{8},,,,,,,,
{8}3h[8:2],,E4,,
{12}6h[6:1],,E6,E7,,,
2,,2,4,,3h[8:2],,,4,2,,,
7,,7,5,,5,6,,3,5,4,6,5,,3V52[16:3],4,,7,,,8,8,,,
{8}3h[8:2],,E4,,
{12}6h[6:1],,E6,E7,,,
2,,2,4,,3h[8:2],,,4,3,5,4,
6V47[16:3],,1,1,,2,2,,3,6,4,5,1h[8:2],,5-8[8:1]*-2[8:1],5,,5bx<4[8:3],,,,,,,
{8}
,6V82[16:3],6,2,
,3>4[16:15],3,7h[8:5],,,,,,,,,
7h[8:1],5h[8:1],6h[8:1],4h[8:1],5h[8:1],3h[8:1],4h[8:1],2h[8:2],,
8,7-4[8:1],7,3-8[8:1],3,5,7,
,6>3[16:2],6,1,
,2q7[16:2],2,6,,
8h[8:1],5h[8:1],6h[8:1],1h[8:1],8h[8:1],3h[8:1],4h[8:1],
3-1[32:3],3,7<4[8:1],7,1-5[8:1],1,7,7,
{16}64,,3-6[8:1],5,2,,3bx/7-2[8:1],,,,3/7bx,,,,,,
{8}1bx,1bxv6[8:1]*v4[8:1],1bx,1bx,,E7,E3,,
6bx/4bx,6bx<1[8:1]/4bx>1[8:1],6bx/4bx,6bx/4bx,,
{16}E3,B3,
{8}B4,,
8bx/4bx,8bx<5[8:1]/4bx>1[8:1],8bx/4bx,8bx/4bx-7[8:1],,3/4qq5[8:2],,64,,8,
7-4[8:1],,3V52[16:3],,8w4[8:1],,8,,3h[8:2],,2,2<7[8:1],,4q5[8:2],,,
6h[8:2],,5<8[8:1],,1,2h[8:2],,
{16}1,1,
{8}2-6[8:1],4,5,7-3[8:1],,7/1-5[8:1],,15,6,7,8-4[8:1]/2-6[8:1],,,,
3-1[32:3],,4,,3-8[8:1],3,4,,
6-8[32:3],,5,,6-1[8:1],6,5,,
3V52[16:3],3,5,6,7<4[8:1],7,4,2,
1q5[8:1]*p5[8:1],,1,,8v3[8:1]*v5[8:1],,8,,
4>1[8:1],7<4b[8:1],4pp1[8:3],7,,,,,
3-8[8:1],7-3b[8:1],3>4[8:3],7,,,,,
34,2,35,1,4/6h[8:2],,8V64[16:4],,4V28[16:4],,8V64[8:2],,4<3[8:4],3,2,4hx[8:3],,
,,,35,2-4[32:3]/6-4[32:3],,26,,3h[8:2]/5x,6x,7x,8xh[8:2],5-2[8:1],,
6V47[8:2],,4,3,2h[8:3],1,8,7,
{16}3,3,
{8}6h[8:2],5,3h[8:2],4,7,
4-7[8:1]/6,5,
3V52[8:2],,5,6,7h[8:3],1,2,3,
{16}6,6,
{8}3h[8:2],4,6h[8:2],5,1w5[8:1],,1,,
{16}25,,3,4,3,,45,,6h[8:1],,5,7,,,
6,,45,,3,,2>5[32:5]/5,,8,8,,,,,,,
{8}71,3h[8:2]/4,1bx,1bx,
28,6h[8:2]/5,8bx,8bx,
71,34,1bx,
4bx/7bx,2bx/5bx,
{16}3b/7b,,,1b/5b,,,3bpp2[8:3]/7bpp6[8:3],,,,,,,,,,
{8},4b-1[8:1]/5b-8[8:1],,4b/5b,,
1h[8:1],2h[8:1],3h[8:1],4,5h[8:1],6h[8:1],
7-3[8:1],,4-1[8:1],4,7-3[8:1],,5-8[8:1],5,7h[8:2],,
1-5[32:3],5V38[16:2],1,6,7,1x,
2-6[8:1]/6,,5-8[8:1],5,2-6[8:1],,4-1[8:1],4,2h[8:2],,
8-4[32:3],4V61[32:4],2,3,4,5,1,
{16}8h[8:1]/4bx,,,2h[8:1]/6b,,,3b/7bp5[8:2],,
{16},,A3,A2,A1,,,,
{16}2h[8:1]/6bx,,,8h[8:1]/4b,,,2bq4[8:2]/6b,,
{16},,A1,A8,A7,A6,A5,,4xw8[8:1]/3x,,,,4,,,,
17,,2-5[8:1]/6-1[8:1],,,,26,,,,
{8}17,6,45,3,28,37,4/6<1[8:1],,
2-6[8:1],2,5<8[8:1],,2-6[8:1],2,4h[8:2],,3V52[16:3],3,5,7V51[16:3],7,1,
3>8[8:1],,
7-3[8:1],7,4>1[8:1],,7-3[8:1],7,5h[8:2],,6V47[16:3],6,4,1>5[16:2]*<5[8:1],,1,,
{16}8h[8:1]/4bx,,,2h[8:1]/6b,,,3bqq4[8:2]/7bqq8[8:2],,
{16},,,,,,,,
{16}2hx[8:1]/6bx,,,8h[8:1]/4b,,,2bq4[8:2]/6b,,
{16},,A5,A6,A7,A8,
{16}1hx[8:2],,,,
{8}4,28,7,46,2V48[16:3],,7-5[8:1],,7,1,3,12,38,47,
5bx-8[8:1]/6bx-3[32:3],,5bx/6bx,,2bx>5[8:1]/1bx<6[8:1],,2bx/1bx,,7-4[8:1],,4,
2<7b[8:1],7V51[8:2],5>2b[8:1],,,,
8<5[8:1]/5>2[8:1],,58,,1x>4[8:1]/4<7[8:1],,41,,8x<5[8:1],,
4-8[8:1]/8,,1>4[8:1]/4,,
1/5-1[8:1],,3V52[16:3],3,1,8,7V51[16:3],7,2,3qq4[8:2],,8,7,6,
5-1[16:2],4,3,2,
8bx-3[8:1]*-5[8:1],,8bx,,1bx-6[8:1]*-4[8:1],,1bx,,
8-4[8:1],7,3-1[32:3],2,7<4[8:1],6,37,2,1>4[8:1],8,7,6,5-1[8:1],4,3,2,8,
{16}7-2[8:1],5,
{8}6,3-6[8:1]/7bx,,3bx/7,,,
{8}3h[8:2],,E4,,
{12}6h[6:1],,E6,E7,,,
2,,2,4,,3h[8:2],,,4,2,,,
6pp5[8:3],,,4,,,4qq5[8:2],,,6,,,7,,6,5,,6pp6[8:2],,,2,2,,,
{8}3h[8:2],,E4,,
{12}6h[6:1],,E6
,E7,,,
2,,2,4,,3h[8:2],,,4,3,5,4,
6h[8:6],,2,2,,5,5,,1,1s5[8:1]*s5[8:1],,,5,,6w2[8:1],6,,
{48}B6,Cf,B1/B2/B3,A1/D2/A2/D3/A3,,,,,,
