&title=Undying Macula
&artist=Ashrount
&first=0.05
&des_5=おめが
&lv_5=14
&des=おめが
&inote_5=(189)
{1},,,
{4}8<1[2:5],,,2x,,,4x,,,6x,,,8z4<5s1[1:2],,,2x,,,4x,,,6hx[4:1],8hx[4:1],2hx[4:1],4hb[4:1],
{8}6,3/7h[4:1],,1,1>4[4:1],,4V62[8:3],,8,8,7h[4:1],,1,6/2h[4:1],,5,5-1[4:1],,1V74[8:3],,2,,
{4}3hb[2:1],,,2h[4:1]/5h[4:1],,
{8}1-5[8:1],6,1b/7hb[4:1],,,3h[4:1]/4,,,5h[8:1]/7h[8:1],,4h[8:1]/2h[8:1],,1h[8:1]/8h[8:1],,
{1}3b-5s1s5-7[2:5]`6b-4z8z4-2b[2:5],,,
{4}1h[4:1]/8,
{16}8x,7,6x,5,7,6,5x,4,6x,5,4,3,5x,4,3,2,
{4}1b-5[8:1]/5,1b/5b<4[2:1],,,8xz4[4:1],,,1h[4:1]/5,
{16}3x,4,5x,6,2,3,4x,5,1x,2,3,4,8x,1,2,3,
{4}8b-4[8:1]/4,8b/4b>5[2:1],,,1xs5[4:1],,,8h[4:1]/4,
{16}5,7,5,7,1,8,1,8,2,4,2,4,1,6,5,7,3,4,2,8,
{4}1h[4:1],
{16}4,2,4,2,8,1,8,1,7,5,7,5,8,3,4,2,6,5,7,1,
{8}2b/4b,3,3,5b/7b,6,6,1/8,1/8,
{16}2,7,3,6,
{24}4<3q5[1:1],5,4,5,4,5,
{1}4hb[4:5],{4},
{48}B4,C,B8,A8,{24},{8},
{32}1b/7b,2/6,3/5,4qq2>3-5[16:5],
{2},
{16},,8,,5/7,,3,4,3,4,
{8}2,1/5,6-1[8:1],6,3-5[8:1],2,6>1[4:1],7,8b,,
{16}7,6,5,4,3,2,1,8,
{8}3/7V51[4:1],4,7,2,2,4/8,4b/8hb[8:3],,5>2[16:3],5,
{16}1,8,7,6,
{8}5b/1x>3[8:1],4,1,7<5[8:1],4,7,3-6[8:1]*V57[8:1],,3-8[8:1]*V17[8:1],,3,,5-3-1-7-4[2:1],,,,,,2b,3/5,
{16}7,5,7,5,
{8}8-4[8:1],8,1,1,3/5,7,7,3v8[8:1]/5v8[8:1],3b/5b,,,1,2/6,5,
{16}3h[8:1]/4h[8:1],,,6h[8:1]/5h[8:1],,,1/8,,
{8}2z6[4:1]/7s3[4:1],3/6,2b/7b,,,,
{16}4,5,4,5,
{8}3,3,3/1,3,3/5,3,
{16}2,4,2,5,2,6,2,7,2,8,2,1,
{8}2bq5[4:1],,,,8b,,5/7,3/4,1b-5[8:1]/8b,,6,6,2/4,5/6,1b-5[8:1]/8b,,6,6,3/4,5/7,1b-5[8:1]/8b,,6,6,4b/7bp4[4:1],,,,1b,,4/2,6/5,8b-4[8:1]/1b,,3,3,7/5,4/3,8b-4[8:1]/1b,,3,3,6/5,4/2,8b-4[8:1]/1b,,3b,3,5b/2bq5[4:1],,,,8b,,
{16}7,5,
{8}6,1b-5[8:1]/8b,,6,6,
{16}2,4,
{8}3,1b/8b-4[8:1],,3,3,
{16}7,5,
{8}6,1b-5[8:1]/8b,,1x/7x-3[8:1],,7x/C/3s7V16b[1:1],,,,
{1},
{8}E5/B5,E1/B1,E7/B7,E3/B3,,E6,E2,E8,E4,,8-4[8:1],,1b/8b,2-5[8:1],,2/6,7-3[8:1],,1/7,
{16}2,4,
{8}2-4[8:1],5-1[8:1],2-6[8:1],5,2,7-4[8:1],,7/8,1-5[8:1],,1<6[8:1]/5,,1>4[8:1]/4,,1/6xV48[4:1],,6x/2,3V51[4:1],,3/7,6,,1x/5,
{16}3,4,1b,,6,5,8b,,1,8,
{6}2h[8:1]/7h[8:1],4h[8:1]/3h[8:1],6h[8:1]/5h[8:1],
{8}1/8,2/7,
{24}2,3,4,5,6,7,
{8}8b-4[8:1],,8b,,Ch[4:1],,E7/B7/B6/B2/B3/E3,,1/8,2,3/4,
{16}6-4[8:1],5,
{8}7,3,1-5[8:1],1,8<4[4:1],,4p7[8:1],,2,3,4/8x,6,1/5,3,4/5,6,5b/7b,6,6,2b/4b,3,3,1/7,5,2/8,4,
{16}6p4>8[4:3],3,5,4,
{4}6h[4:3],,,D8/A8/E8/B8f,
{1},,
{4}1>8[2:5],,,7x,,,5x,,,3x,,Ch[4:1],1xs5>4z8[1:2],,,7x,,,5x,,,3hx[4:1],1hx[4:1],7hx[4:1],5hb[4:1],
{8}3,6/2h[4:1],,8,8<5[4:1],,5V37[8:3],,1,1,2h[4:1],,8,3/7h[4:1],,4,4-8[4:1],,8V25[8:3],,7,,
{4}6hb[2:1],,,7h[4:1]/4h[4:1],,
{8}8-4[8:1],3,8b/2hb[4:1],,,6h[4:1]/5,,,4h[8:1]/2h[8:1],,5h[8:1]/7h[8:1],,8h[8:1]/1h[8:1],,
{4}2b/7h[8:9],,,5,,,
{8}2h[16:9]/4b,,,4,,,2h[16:9]/4,,,4,,,
{4}7h[8:3]/5b,5,7h[8:3]/5,5,7h[8:3]/5,5,
{16}2h[32:9]/4b,,,4,,,2h[32:9]/4,,,4,,,2h[32:9]/4,,,4,,,2h[32:9]/4,,,4,,,
{8}4b/2,4,4,4,4,4,
{16}3b,4,3x,4,3x,4,3x,4,3x,4,3x,4,
{24}2b,3,4,2x,3,4,2x,3,4,2x,3,4,2x,3,4,2x,3,4,
{32}1b,2,3,4,1x,2,3,4,1x,2,3,4,1x,2,3,4,1x-5[8:1],2,3,4,1x,2,3,4,
{1}1bx-7-2-6-3-5-1[4:5],
{2},8bhx[8:9],
{4},4h[8:3],,,
{8}2/6,7,1,8,1-5[8:1]/7-5[8:1],,1v4[8:1]/7v4[8:1],,1-3[8:1]/7-3[8:1],,1<4[4:1]/7,,1/7h[4:1],,,7,8-4[8:1]/2-4[8:1],1,8v5[8:1]/2v5[8:1],,8-6[8:1]/2-6[8:1],,8>5[4:1]/2,,2h[4:1]/8,,,6,7-5[8:1]/8-5[8:1],,7-3[8:1]/8-4[8:1],,7-2[8:1]/8-2[8:1],,7-3<6[4:1]/8,,1hx[4:1]/7,,,8,2-4[8:1]/1-4[8:1],3,2-6[8:1]/1-5[8:1],,2-7[8:1]/1-7[8:1],,2-6>3[4:1]/1,,8hx[4:1]/2,,,2,1-4[8:1]/5-8[8:1],,1<6[8:1]/5>2[8:1],,1-5[8:1]/5-1[8:1],,1pp3>8[4:1]/5,,7h[4:1],,,6,5-8[8:1]/1-4[8:1],,5>2[8:1]/1<6[8:1],,5-1[8:1]/1-5[8:1],,5pp7<4[4:1]/1,,3h[4:1],,,2,1-3<4[8:1]*-4[8:1],,1-7<6[8:1]*-6[8:1],,1w5[8:1],,1,,3/7,5,2/6,4,
{24}8,1,8,1,8,1,
{8}2b/7b,,4b-8[8:1]/5b-1[8:1],3/6,4b/5b,,2/6,
{16}3,4,2>5[8:1],,1,8,2b,,7,,4x/6,,7,8,6<1[8:1],,5,4,6b,,3,,2/8x,,3,5,4,6,2,5,4b,7,1,,2/8,,4/5,,
{24}1w5[8:1],7,1,7,,,
{16}1b,,,,7/3,,6,5,7<4[8:1],,8,1,7b,,2,,5x/3,,2,1,3>8[8:1],,4,5,3b,,6,,7/1x,,6,4,5,3,7,4,5b,2,8,,7/1,,5/4,,
{24}8w4[8:1],2,8,2,,,
{4}8b,
{1}2bpp1[2:5]`6bpp5b[2:5],,,
{32}1b/8b,2/7,3/6,4-6-3-7-2-8[1:1]/5-3-6-2-7-1[1:1],{8},,,
{1},C,
{2},1x>1[2:21],
{4}E1,B8,,B4,E5,,B7,E7,,E3,B3,,E6,D6,,D2,E2,,,C,,E1,B1,,B5,E5,,B2,E3,,E7,B6,,E4,D4,,D8,E8,,,C,
E
