&title=老人と海
&artist=ヨルシカ
&first=-0.045
&des=9V_Y2-6
&lv_5=12+
&inote_5=(130){8},,,,7h[1:3],,,,,,,,,,,,,,,,5h[1:1],,,,,,,,,,,,6,7,8h[8:1]/5h[8:1],,3h[8:1],4,25,3,4,4,25,3,6h[8:1],5,74,6,5,5,47,6,3h[8:1],4,25,3,4,4,25,3,6,5,74,3,5<8[8:1]/2>5[8:1],,52,,7qq8[4:1],,8,1,2>4[8:1],2,1,8<5[4:1],,5,,4,,3,34,,2pp1[4:1],,1,8,7<5[8:1],7,8,1>4[4:1],,4,,5,,6,65,,21,3,4,5/8-5[8:1],,3,2,1-4[8:1],,6,7,8-5[8:1],,3,2,1>5[8:1],5p8[8:1],,6,,7-4[8:1],7,8,1q5[8:1],,6,7,8q1[4:1],,2,2h[8:1],,3>8[8:1],,8,,7<4[8:1],7,8q1[4:1],8,,5,6,7<4[8:1],,8,1q5[8:1],,6<1[8:1],,4,3,2-5[8:1],2,1,8p4[8:1],,3,2,1p8[4:1],,5,5h[8:1],,6-8[8:1],8,6,1-5[8:1],,18,7,6-8[8:1],,65,4,3V15[4:1],,5,6,7,8,1,2,8,1,2,8qq1[8:4],2pp1[8:3],,,,,,8,7,6,5b-2[8:1]/2b-4[8:1],,2/5p1[16:3],,8,7,6,5<8[8:1]*>2[8:1]/1,,5,,1,28,37,46,5-1[8:1],,2-5[8:1],2,8-3[8:1],8,4-8[8:1],4,5<8[8:1]*>2[8:1],,5,,1h[8:3],8,7,6,5-2[8:1]/2-4[8:1],,5p1[16:3]/2,,8,8,7,6,5-2[8:1]/2-4[8:1],,5p8[16:3]/2,,8,7,6,5,4<7[16:3],,4b/3bpp2[2:1],,,8,,7,7<4[8:1],,4,3,2h[8:1],4,35,46,7<5[8:1]/5-8[8:1],,5p8[16:3]/7,,8,1,2,3,7-4[8:1]/4-8[8:1],,7/4<1[4:1],,1,2,3,4,5-1[8:1]/7,,8-4[8:1],8,2-5[8:1],2,6-1[8:1],6,4>1[8:1]*<7[8:1],,4,,8h[8:3],1,2,3,4-7[8:1]/7-5[8:1],,4q8[16:3]/7,,1,1,2,3,4-7[8:1]/7-5[8:1],,4q1[16:3]/7,,1,2,3,4,5>2[8:1]/7h[8:15],,5,,,,,,,,,,,1,2,3h[8:1],,6,,75,,3,2,14,5,,6,57,4,,3,24,3,6pp1[8:3],,5,,4,3,2h[4:1],1,8-5[8:1],,3,2,1-4[8:1],,6,7,8pp8[8:4]*qq8[8:4],,,,,,,,4,12,5,78,18,27,36,4,6pp5[4:1],,5,4,3>1[8:1],3,7,6-8[8:1],,5-1[8:1],,6q7[4:1],,5,4,3,2pp1[4:1],,1,8,7<5[8:1],7,3,2-4[8:1],,1-5[8:1],,2p3[4:1],2,6,7h[8:1],,8h[8:3],1,2,3>8[8:1],,8,7,6<1[8:1],,2,3,4p7[8:1],,7,6,5<8[8:1],8p4[8:1],,3,,2-5[8:1],2,1,8p4[8:1],,3,2,1p8[4:1],,7,7h[8:1],,6h[8:1],1,5h[8:1],1,6h[8:1],2,3,4-1[8:1]/5,,5-8[8:1],,4-1[8:1],,8,7,6,5v2[8:1],,2,3,4h[4:1],
{24}1,8,7,
{8}6h[4:1],,
{16}4h[16:3],,,3h[16:3],,,2,,5,,6,,47,,3,,
{8}2-5[8:1],2,1,8<5[8:1],,3,2,1>4[8:1],,6,7,8<5[8:1],,4,3,2,1h[8:1],8,7,1h[8:1],8,7,1pp8[8:4],7qq8[8:3],,,,,,1,2,3,1bv4[8:1]/4b>1[8:1],,1/4<7[16:3],,1,2,3,1v4[8:1]/4>1[8:1],,1/4<7[16:3],,8,1,2,3,4-7[8:1],,6-1[8:1],6,3-8[8:1],3,7,6,5<8[8:1]*>2[8:1],,5,,1h[8:3],8,7,6,8v5[8:1]/5<8[8:1],,8/5>2[16:3],,1,8,7,6,8v5[8:1]/5<8[8:1],,8/5>2[16:3],,1,8,7,6,5<8[8:1]/1,,5b/3bpp2[2:1],,,8,,7,7<4[8:1],,4,3,2h[8:1],
{16}4,3,5,4,6,,
{8}7<5[8:1]/5-8[8:1],,5p8[16:3]/7,,8,1,2,3,7-4[8:1]/4-8[8:1],,7/4<1[4:1],,1,2,3,4,5-1[8:1],,8-4[8:1],8,2-5[8:1],2,6-1[8:1],6,4>1[8:1]*<7[8:1],,4,,8h[8:3],1,2,3,4-7[8:1]/7-5[8:1],,4q8[8:1]/7,,1,1,2,3,4-7[8:1]/7-5[8:1],,4q1[8:1]/7,,1,2,3,4,5>2[8:1],,8h[8:29]/5,,,,,,,,,,,,,,,,,,,,,,,,,,,1,2,3h[8:1],,1b/5b,,
