&title=La'qryma of the Wasteland
&artist=DJ Noriken
&first=0
&des=DJ Sn feat.⌀
&lv_4=12.9
&lv_5=14.5
&inote_4=(168)
{1},
{16}45,,3,4,3,,2/5,,6,5,6,5,6>7[1:2],,,,
,,,,,,,,,,,,,,,,
,,,,,,,,,,,,,,,,
3<2[2:3],,,,,,,,,,,,,,,,
,,,,,,,,4-8[8:1],,,,,,,,
1/2,,,,1/2,,,,3/4,,,,3/4,,,,
5/6,,5/6,,5/6,,5/6,,7/8,,7/8,,7/8,,7/8,,
2,1,2,1,3,8,3,8,4,7,4,7,5,6,5,6,
4V26[4:1]/7V15[4:1],,,,,,,,,,,,4/7,,,,
2>5[4:1],,,,8,,7,,6V48[4:1],,,,3,,,,
1>4[4:1],,,,7,,6,,5V31[4:1],,,,6,,,,
7<4[4:1],,,,1,,2,,3V51[4:1],,,,6,,,,
8<5[4:1],,,,2,,3,,4V68[4:1],,,,3,,,,
1>4[4:1],,8,,7,,6,,5V31[4:1],,,,6,,,,
8<5[4:1],,1,,2,,3,,4V68[4:1],,,,3,,,,
1>4[4:1],,8,,7,,6,,5<8[4:1],,,,3,,,,
1-5[8:1],,,,,,,,8z4[4:1],,,,,,,,
3h[4:1],,,,6,,7,,8<5[4:1],,8,,1,,2,,
3>8[4:1],,3,,4,,5,,6,,6,,5/7,,4/8,,
3<6[4:1],,3,,2,,1,,8>3[4:1],,8,,7,,6,,
5<8[8:1],,5,,4,,3,,2V48[4:1],,,,,,,,
7,,,,7/8,,,,5/6,,,,5/6,,,,
3/4,,,,3/4,,,,1/2,,,,1/2,,,,
8,1,8,1,8,1,8,1,2/8,,,3/7,,,4/6,,
5q8[2:1]*-2[4:1],,,,,,,,,,,,,,,,
1>8[2:7],,,,,,,,,,,,,,,,
,,,,,,,,1,,,,1,,,,
1h[8:3],,,,,,,,,,,,,,,,
1,,,,,,,,1,,,,1,,,,
1>8[1:3],,,,,,,,,,,,,,,,
,,,,,,,,1,,,,1,,,,
1h[8:3],,,,,,,,,,,,,,,,
,,,,,,2,1,2,1,2,1,2,,,,
8<5[8:3],,,,,,5>2[8:3],,,,,,2<4[4:3],,,,
,,,,,,,,3,,2,,1,,,,
2>5[8:3],,,,,,5<8[8:3],,,,,,8>6[4:3],,,,
,,,,,,,,7,,8,,1,,,,
8>3[8:3],,,,,,3<6[8:3],,,,,,6<4[4:3],,,,
,,,,,,,,8,,1,,2,,,,
1<6[8:3],,,,,,6>3[8:3],,,,,,3>5[4:3],,,,
,,,,,,,,,,,,,,,,
1>8[4:29]/8,,,,,,,,,,,,,,,,
,,,,,,,,,,,,,,,,
,,,,,,,,,,,,,,,,
,,,,,,,,,,,,1,,1,,
,,,,,,,,,,,,2,,2,,
,,,,,,,,,,,,3,,3,,
,,,,,,,,,,,,1>4[2:1],,1,,
,,,,,,,,,,,,,,,,
3/8,,,,8,,1>6[1:1],,8,,,,8,,8,,
8,,,,8,,,,8,,,,8,,8,,
4/7,,,,4,,5<2[1:1],,4,,,,4,,4,,
4,,,,4,,,,4,,,,4,,4,,
1/3,,1,,1,,1,,1/8,,8,,8,,8,,
7/8,,7,,7,,7,,6/7,,6,,6,,,,
5,4,5,4,5,4,5,4,5,4,5,4,5,4,5,4,
5pp1[2:1]*qq1[2:1],,,,,,,,,,,,,,,,
2>5[16:3]/8,,3,,1,,8,8v5[16:3],,7,,4,,3,,,
2>5[16:3],,3,,1,,6,6v8[16:3],,7,,4,,3,,,
7<4[16:3]/1,,6,,8,,1,1v4[16:3],,2,,5,,6,,,
7<4[16:3],,6,,8,,3,3v8[16:3],,2,,5,,6,,,
1-3[8:1]/7,,,6,,,7,,1-5[8:1]/8,,7,,6,,,,
8-6[8:1]/2,,,3,,,2,,8-4[8:1]/1,,2,,3,,,,
1>4[8:1],,2,,5<8[8:1],,6,,2>5[8:1],,3,,6<1[8:1],,7,,
4-8[8:1],,4,,8<2[4:1],,7,,6h[4:1],,,,,,,,
7<4[16:3]/1,,6,,8,,1,1v4[16:3],,2,,5,,6,6,,
7<4[16:3],,6,,8,,3,3v1[16:3],,2,,5,,6,6,,
2>5[16:3]/8,,3,,1,,8,8v5[16:3],,7,,4,,3,3,,
2-5[16:3],,3,,1,,6,6v1[16:3],,7,,4,,3,3,,
8-6[8:1]/2,,,3,3,,2,,8-4[8:1]/1,,2,,3,,,,
1-3[8:1]/7,,,6,6,,7,,1-5[8:1]/8,,7,7,,6,6,,
4,4,5,5,3,3,6,6,2,,,1/8,,,6/7,,
4w8[4:1]/5,,,,,,,,,,,,2/6,,,,
4/7,,6,5,6,,4,,2/5,,3,4,3,,5,,
4/7,,6,5,6,,4,,2-4[8:1]/5-1[8:1],,,,,,,,
4/8,,6,5,6,,3,,1/5,,3,4,3,,6,,
4/8,,6,5,6,,3,,1v4[8:1]/5v8[8:1],,,,,,,,
4/8,,7,5,6,,3,,1/5,,2,4,3,,6,,
4/8,,7,5,6,,3,,1>4[8:1]/5,,1<6[8:1],,,,,,
3,,6,5,7,,8,,4/6,,3,4,2,,1,,
3/5,,6,5,7,,8,,1-5[8:1]/2-6[8:1],,1/2,,,,,,
3,4,3,4,3,,2/5,,6,5,6,5,6,,4/7,,
3,4,3,4,3,,2/5,,1v4[8:1],,1,,8,,7,,
6,5,6,5,7,,4/7,,3,4,3,4,2,,2/5,,
6,5,6,5,7,,4/7,,8v5[8:1],,8,,1,,1,,
2,4,3,4,2,,2/5,,7,5,6,5,7,,4/7,,
2,4,3,4,2,,2/5,,1>4[8:1],,1,,8,,7,,
5-1[1:1]/6,,,,,,,,,,,,,,,,
1s5[4:1],,,,5s1[4:1],,,,,,,,,,,,
2V48[4:1]/8,,,,7,,7,,6V41[4:1],,,,1,,,,
2V48[4:1],,,,8,,8,,7V51[4:1],,,,1,,,,
3V52[4:1],,,,8,,8,,7V16[4:1],,,,2,,,,
1V73[4:1],,,,5s1[8:3],,5,,,,,,,,,,
2,8,1,8,2,,3,,6,4,5,4,6,,7,,
2,1,2,1,2,1,2,,7,8,7,8,7,8,7,,
1,8,1,8,1,8,1,8,1,8,1,8,1,8,1,8,
1s5[4:1],,,,5V31[2:1]*V71[2:1],,,,,,,,,,,,
&inote_5=(168)
{1},
{16}45,,3,4,3,4,2,,6,5,6,5,7b-3[8:1],,,,
1s5[2:3],,,,,,,,3h[8:1],,,,,,,,
,,,,,,,,7h[8:1],,,,,,,,
4-8[4:5],,,,,,,,6h[8:1],,,,,,,,
,,,,,,,,2bz6[16:2],,,,,,,,
7,,,,56,,,,34,,,,12,,,,
8-4[8:1],,4,,8>3[8:1],,2,,8<5[8:1],,6,,8,,4,,
{16}3h[8:1],,{24}8,7,6,{16}2h[8:1],,{24}7,6,5,{16}1h[8:1],,{24}6,5,4,{16}8,1,2,3,
4bs8[4:1]/8bz4[4:1],,,,,,,,,,,,21,,,,
8<5[8:1],,4,,3,,2,,1h[8:1],,4,,52,,6,,
7<4[8:1],,3,,2,,1,,8h[8:1],,4,,51,,6,,
1>4[8:1],,5,,6,,7,,8h[8:1],,5,,47,,3,,
2>5[8:1],,6,,7,,8,,1h[8:1],,5,,48,,3,,
6pp5[8:3],,1,,2,,3,,4,,4h[8:2],,3,,5,,
3qq4[8:3],,8,,7,,6,,5,,5h[8:2],,7,,3,,
6pp4[8:3],,4,,3,,2,,1,,1h[8:2],,3,,5,,
86,,7h[16:1],1h[16:1],,5h[16:1],4h[16:1],,
28,,4,6,,3,5,,
2-5[8:1]/4-8[8:1],,,,2b/4b,,,,7V51[4:1],,7,,5,,2,,
3>8[8:1],,3,,7,,6,,5V71[4:1],,5,,1,,3,,
4V28[4:1],,4,,8,,6,,5-1[8:1],,5,,2,,3,,
4-8[8:1],,4,,7,,6,,1b/5bs1[8:1],,,,,,,,
2,4,3,4,1,4,3,4,8-3[8:1],7,6,5,4/8b,,,,
7,5,6,5,8,5,6,5,1-6[8:1],2,3,4,5/1b,,,,
2,4,8,6,3,1,5,7,{32}4,3,2,1,8,7,6,5,4,3,2,1,8,7,6,5,
{16}4b/8b>7[8:3],,,,,,,,,,,,4,,,,
1<2[8:14]/2,,,,,,,,,,,,,,,,8h[4:1],,,,,,,,7,,,,6,,,,
7p4[8:14],,,,,,4,,,,,,,,,,1,,,,,,,,3,,,,3,,,,
2q5[8:14],,,,,,5,,,,,,,,,,8,,,,,,,,6,,,,7,,,,
8<3[8:6],,,,,,1,,,,,,,,,,
2h[4:1],,,,,,{24}1,2,1,{16}2,1,2,,1h[8:1],,3h[8:1],,
8<5[8:1],,8,,5,,3,3,4,,2-6[8:1],,78,,2,,
8-5[8:1],,8,,4,,3,3,1v6[8:1],,28,,1,,7,,
8-4[8:1],,8,,2,,3,3,5>2[8:1],,78,,5,,6,,
8v3[8:1],,8,,2,,1,1,5-8[8:1],,34,,5,,2,,
1>4[8:1],,1,,4,,6,6,5,,7-3[8:1],,21,,7,,
1-4[8:1],,1,,5,,6,6,8v3[8:1],,71,,8,,2,,
1-5[8:1],,1,,7,,6,6,4<7[8:1],,21,,4,,3,,
2b>1[8:4],,,,,,,,,,,,5,,,,
3/8<1[2:7],,,,,,,,,,,,,,,,
,,,,,,,,,,,,,,,,
,,,,,,,,,,,,,,,,
,,,,,,,,,,,,8p4[1:1],,8,,
,,,,,,,,,,,,3p7[1:1],,3,,
,,,,,,,,,,,,5p1[1:1],,5,,
,,,,,,,,,,,,8w4[8:3],,8,,
,,,,,,,,2/6,,,,,,,,
7h[8:4]/4-2[8:1],,,,,,,,8-4[8:1],,,,,,,,
5-7[8:1]/2h[4:2],,,,,,,,1-5[8:1],,,,,,,,
4-2[8:1],,8p4[8:1],,,,,,1-5[8:1],,1h[8:1],,,,,,
5-7[8:1],,1q5[8:1],,,,,,8-4[8:1],,8h[8:1],,,,,,
3/6,,3,,3/5,,3,,3/7,,3,,3/4,,3,,
3/6,,6,,6/4,,6,,6/2,,6,,6/5,,6,,
2b,5,3,4,1b,6,3,4,8b,7,1,6,2,5,3,4,
2bV48[4:1],,,,,,,,7w3[8:1],,,,,,,,
{16}15,,2/4p8[8:1],,6,,4,5,,5h[8:1],,7,8,1,2,3,
84,,7/5q1[8:1],,3,,5,4,,4h[8:1],,2,1,8,7,6,
15,,2/4-1[8:1],,6,,4,5,,5h[8:1],,7,8,1,2,3,
84,,7/5-8[8:1],,3,,5,4,,4h[8:1],,2,1,8,7,6,
1-5[8:1]/5,,,4,1-3[8:1],,6,,1-4[8:1],,7,,14,5,6,7,
8-4[8:1],,,5,8-6[8:1],,3,,8-5[8:1],,2,,85,4,3,2,
1h[8:1],,3h[8:1],,4h[8:1],,6,5,,5,7,5,8,4,8,4,
1,2,3,4,15,26,37,48,5,6,7,8,1,2,3,4,
58,,7/4-1[8:1],,6,,4,5,,5h[8:1],,7,8,1,2,3,
41,,7/5-8[8:1],,3,,5,4,,4h[8:1],,2,1,8,7,6,
85,,2/4v7[8:1],,6,,4,5,,5h[8:1],,8,1,2,3,4,
5/7,,6h[8:1],,{24}8,1,2,{16}3b,,45,,7,86,,2,13,,
4/6-8[8:1],,5,,6/4-6[8:1],,3,,4/2,,1h[8:1],,8,7,6,5,
4/3-1[8:1],,2,,3/5-3[8:1],,6,,5/7,,8h[8:1],,1,2,3,4,
6b,5,5,5,7b,5,5,5,8h[16:2],,,1h[16:2]/7h[16:2],,,2h[16:1]/6h[16:1],,
35,,2,4,,4,3,,6b,,5h[8:1],,7h[8:1],,4h[8:1],,
8V63[8:3],,8,,3,,3V51[8:3],,2,,1,,1<5[8:3],,,,
2h[8:1],,,,2h[8:1],,,,1b,,4h[8:1],,2h[8:1],,5h[8:1],,
3V15[8:3],,,,6,,5V37[8:3],,5,,6,,7>4[8:3],,,,
6h[8:1],,,,6h[8:1],,,,6b,,4h[8:1],,7h[8:1],,5h[8:1],,
8V24[8:3],,,,4,,4V62[8:3],,,,3,,2>8[8:3],,,,
1-5[8:1],,,,1,,,,4b,,7h[8:1],,3h[8:1],,6h[8:1],,
1V75[8:3],,,,5,,5V37[8:3],,,,6,,7<1[8:3],,,,
8-4[8:1],,,,8,,,,8w4[8:1],,8,,,,,,
2-5[8:1],,1,8,2,,7,,6<1[8:1],,5,4,6,,3,,
2-5[8:1],,1-6[8:1],8,2,,1,,4-8[8:1],3,2,1,4,,,,
7-4[8:1],,8,1,7,,2,,3>8[8:1],,4,5,3,,6,,
7-4[8:1],,8-3[8:1],1,7,,8,,5-1[8:1],6,7,8,5,,,,
7,3,6,5,6,5,6,2,4,3,4,3,5,4,5,4,
6b,3,6,3,7b,2,7,2,8b,4,6b,2,5b,1,7b,3,
8b<1[4:3],,,,,,,,,,,,,,,,
5s1[16:3],,,,1s5[16:3],,,,,,,,,,,,
3/4-1[8:1],,5,,4,,6,,7/8<5[8:1],,1,,8,,2,,
3/4p8[8:1],,5,,4,,6,,7h[8:1],,8,,16,,38,,
6/5-8[8:1],,4,,5,,3,,2/1>4[8:1],,8,,1,,7,,
6/5q1[8:1],,4,,5,,3,,2h[8:1],,4,3,,6b,5h[8:1],,
{24}8b,1,2,3,4,5,7b,8,1,2,3,4,{16}6>3[8:1],5,6,5,6b,,,,
{24}1b,8,7,6,5,4,2b,1,8,7,6,5,{16}3<6[8:1],4,3,4,3b,,,,
{24}8b,7,6,2b,3,4,7b,6,5,1b,2,3,8b,1,2,3,4,5,8b/6,1,2,3,4,5,
{16}67,,4,5,4,,6,5,6,3,4,3,6-3[12:1],8,1,3,,,,,E
