&title=愛の残滓
&artist=藍月なくる
&first=0.19
&des=torli
&des_5=torli
&des_6=
&lv_5=14+
&lv_6=1
&inote_5=(174){4},,,,{1}1>6qq4[0.6897##2.069],
,8h[2:3],
{2},4h[4:3],
{4},8<4[0.6897##1.0345],,,{1}E2,
{2},5h[2:1],
4,3h[2:3],
{4},E5,{2}E6,
5,6h[2:3],
{4},E4,{2}E3,
{1}1h[1:1],
6pp8<4[0.6897##1.0345],
(87){2}C,1bxh[2:1],
{4}4<2b[2:1],E1,C,4h[4:1],
5<3b[2:1],E1,C,5h[4:1],
7>5b[2:1],E3,C,8h[4:1],
6<4b[2:1],E1,C,5h[4:1],
3h[8:1],3h[8:1],2h[8:1]/4h[8:1],{8}4,5,
{4}6h[8:1],6h[8:1],7h[8:1]/5h[8:1],{8}6,4,
1b/2b-7b[16:1]*-5b[16:1],Cf,,,4b/8bV24b[12:1]*V64b[12:1],Cf,{16},,,,5/2,
{32}3,4,{16}3,6,{32}3,4,{16}3,{32}7,7,1,8,1,8,2,7,3,6,4,5,{4}Cf,
{8}8-4[16:1],6/2>5[16:1],8b/1b,{16}2,1,{8}8-4[16:1],2/6>3[16:1],8b/1b,{16}2,1,
{8}8-4[16:1],6/2>5[16:1],8b/1b,{16}2-8[16:1],6,{8}7-4[16:1],2/5,{16}7b/1b-5[16:1],2,{8}3,
1/7<4[16:1],2-6[16:1],8b/7b,{16}2,1,{8}8<5[16:1],4/2-6[16:1],1b/8b,{16}2,1,
{8}7-3[16:1],5/1>4[16:1],8b/7b,{16}1,8,{8}7>2[16:1],5/4-2[16:1]*-8[16:1],{4}7,
1w5b[16:1],{128}1b,B1,Cf,B6/B5/B4,{16},,,{64},,{8}4/8-4[16:1],6/2>5[16:1],1b/8b,{16}2,8,
{8}6-2[16:1],4/1-4[16:1],6b,{16}1<6[16:1],7,{8}5-8[16:1],1,{16}4b/5b,3,{8}2h[8:1],
1-6[16:1],4-8[16:1],1b/5b,{16}4,3,{8}2-6[16:1],5/8-5[16:1],1b/2b,{16}8,2,
{8}4-1[16:1],{16}2/7>2[16:1],3,{8}4b/5b,7-4[16:1]/3-6[16:1],1xw5[16:1],3x/7x,{64}1b,Cf/B7/B4/E4/E8/E6/E3,,,,,,,,,,,,,,,{8}5,
5h[2:1],{4}E5,{8}4,4h[2:1],{4}E5,
{8}5,6h[8:3],{4}E5,{2}Ch[4:1],
{8}6-4[16:1],3,{16}6,1,{8}1,2-6[16:1],1,{16}8,8,{8}8,
6-8[16:1],1,{16}6,4,{8}4,1-4[16:1],2,{16}5,5,{8}5h[8:1],
8-4[16:1],6h[8:1],{16}8,7,{8}6-1[16:1],3,4,{16}5,4,{8}3h[8:1],
1<6[16:1],4h[8:1],{16}1,2,{8}3-8[16:1],{16}5,6,{8}7h[32:3],{16}5,5,{8}6/4h[8:1],
7,7-5[16:1],{16},1,{8}7,1,2>4[16:1],{16},7,{8}2,
6,6-4[16:1],{16},2,{8}6,1,2>4[16:1],{16},8,{8}2,
6,5-8[16:1],{16},4,{8}5,1,2-6b[16:1],{16}4,3,{8}2/8,
{2}C,8bxw4b[8:1],
{16}7/1,6-1[16:1],5/2,3,{32}7,5,{16}6,4,3,6/2,1-5[16:1],8/7,6,{32}3,4,{16}1,6,7,
8/4,3-8[16:1],4/7,6,{32}2,4,{16}3,5,6,7/3,8-4[16:1],1/2,3,{32}6,5,{16}8,3,2,
1/5,7-4[16:1],3/8,{32}6,5,6,5,{16}7,8,1,2/5,3-8[16:1],2/6,{32}3,4,3,4,{16}3,5,6,
7/1,8-4[16:1],6/2,{32}7,1,7,1,{16}8,1,2,3/5,6-1[16:1],5/2,{32}8,4,7,5,{16}6,4,3,
{4}8b/2bh[8:1],3h[8:1]/5h[8:5],{8}E7,B1,2,1,
{16}2/4,2,5/3,5,4/6,4,7/5,8/1,{32}2,4,3,5,4,6,5,7,1x,2x,3x,4x,6x,7x,8x,1x,
{8}2b-5b[16:1]*V86b[32:3],Cf,,,4b/8bV64b[16:1]*-3b[16:1],Cf,{16},,,,5/2,
{32}3,4,{16}3,6,{32}3,4,{16}3,{32}7,7,1,8,1,8,2,7,3,6,4,5,{4}Cf,
{348}7bxs3b[16:5],3bxz7[16:5],{5568},,,,,,,,,,,,,,,,,,,,,,,,,,,,,,,,,,,,,,,,,,,,,,,,,,,,,,,{1856}6bx,,,2bx,,,,,,,,,,,,,,,,,,,,,,,,,,{928}5bx,,,1bx,{1856},,,,,,,,,,,,,,,,,,,,,{5568}4bx,,,,,,,,,,,8bx,{4},,{16},,,{1856},,,,,,,,,,,,,,,,,,,,,,,,,{328}Cf/D1/E1/E8/E2/E5/D5,A7,{41}A2,{16},,,{64},,{1312},{16}4/5-1[16:1],
3,{8}6/2<7[16:1],4b/5b,{16}2,6,{8}4xv6[16:1]*v2[16:1],4xw8[16:1],{4}4b,
{16}6/2-6[16:1],5,{8}3/4-7[16:1],1b/2b,{16}4,2,8/1>4[16:1],7,{8}5/6-2[16:1],8b/1b,{16}6,5,
8/4-1[16:1],6,{8}5/7-3[16:1],4b/6b,{16}7,8,{8}1<6[16:1]*>4[16:1],5v8[16:1]*v2[16:1],{4}1b,
{16}1w5b[16:1],{48}1x,1x,1x,{8}1x,{64}1b,Cf,,,,,,,,,,,,,,,{8}3/8V24[8:1],{16}1,1,{8}7/8V64[8:1],{16}7,7,
{8}8/2-6[16:1],{16}8,1,{8}2/5,{16}3-6[16:1]/7-4[16:1],8/2,{8}1w5[16:1],7/3,{4}1b,
{8}6/4V28[8:1],{16}2,3,{8}5/4V68[8:1],{16}6,5,{8}3/4>8[8:1],{16}3,3,{8}4/6-2[16:1],{16}5,5,
{8}6/4,1x-6[16:1]*-4[16:1],5x/7x-3[16:1],1x,7x/3xw7[16:1],5x/1x,{64}3b,Cf,,,,,,,,,,,,,,,{16}7bh[8:1]/E5/B5f/E6,
{128},,,,,,,,,,,,,,,,2b/8b,E8f,B7,B6,{32}E6,,,{16}3,3,{128}5b/2b,E3f,B3,B4,{16},{64},,{96}8b/3h[8:1],7,6,5,,,,,,,,,{48}5,3,4,{8}2bh[8:1],{48}6x,5x,6x,5x,{24}6x,
{8}4b/7bh[8:1],{16}3,{48}2b/8b,3,4,{16}6b/5b,7b,{8}4b/8bh[8:1],{16}5,4b/7b,6b/3b,5b/2bh[8:1],{64},,,,1,,,D7,B7,C,B3,D3,,,,,{32}6,
6,5,7,{8}1bh[8:1],{48},,,8b/2b,7,6,{8}5bh[16:1],{48}8b/2b,7,6,5bh[8:1],,,,,,2,3,4,5,6,7,8,1,2,3,4,5,6,7,8,
{2}Cf/1V75V38b[4:1],5bxh[1:4],
{4}E1,E3,E5,E7,
D1,D3,D5,D7,
E1,E2,E3,E4,
E5,E6,{2}7xw3b[8:1],
{8}5,4,3-8[8:1],8V24b[8:1],5,6,{16}7,7,{8}7h[8:1],
5h[8:1],4h[8:1],2h[8:1],1h[8:1],{16}2,3,{8}4h[8:1],{16}6,3,7,2,
{8}1b/8bV64b[12:1]*V24b[12:1],Cf,,,1b-5b[16:1]/7b-3b[16:1],Cf,{16},,,,5/2,
{32}3,4,{16}3,6,{32}3,4,{16}3,{32}8,8,1,1,7,6,5,4,3,2,1,8,{64}7-3b[16:1],6,5,4,3,2,1,8,7,6,5,4,3,2,1,8,
5b/7b,Cf,,,,,,,2b/8b,7x/3x,6x/4x,5x,,,,,{32}4-8[16:1],6,{16}2-5[16:1],7/1,5/3,4,2,{48}6,7,8,4,3,2,{32}7,7,8,6,{16}1,5/3,
6/2-6[16:1],{32}7-1[16:1],8,{16}6,3/5,2,7,5,4/8,{64}2,3,{32}4,8,1,{64}7,6,{32}5,2,6,1,8,1,7,{64}2,3,4,5,6,7,8,1,
{16}6b/2b-4[16:1],{32}5-1[16:1],4,{16}6,1/7,2,5,3,4/8,2/6-1[16:1],{32}3-5[16:1],4,{16}2,7/1,6,3,8,7/3,
{32}2,2,1,3,6,6,5,7,{48}3,4,3,5,4,5,1,2,3,7,6,5,{32}1,8,3,7,4,5,2,6,{64}1,2,3,4,5,6,7,8,{8}1bw5b[16:1],
{32}1,1,1,1,{64}1b,Cf,,,,,,,{16}7/3-1[16:1],{32}8-4[16:1],5,{16}6,{32}2,4,{16}3,8,2,3/7,{32}6,6,5,7,4,8,3,1,
{16}2<7[16:1],{32}5-1[16:1],4,{16}6,{32}3,4,{16}2,5,3,8/2,{64}2,3,{32}4,8,2,{64}7,6,{32}5,1,1,{64}8,7,{32}6,{64}2,3,{32}4,{64}8,7,6,5,4,3,2,1,
{16}4b/8b-4b[16:1],3,6b/2b-5b[16:1],7,8b/4b,3b,2b/6b,7b,8b/2b-6b[16:1],3,4b/7b-4b[16:1],5,2b/6b,8b,7b/1b,2b,
{32}3b,3,4,2,7b,8,6,1,4b,4,3,5,1b,8,2,6,{48}3b,4,3,5b,{96},{32}2,{48}8b,7,6,5b/4b,3,2,{64}1b/8b-4[16:1],7,6,5,4b,3,2,1,4bx/8bxqq6<6<8b[32:57]*pp2<2<8b[32:57],3x/7x,2x/6x,1x/5x,8b,7,6,5,
{128}8b/4b,B8,Cf,B4/A4/E5/E4,{1},{4},,,{16},,,{64},,{128},E1,
{4},{128},E3,{4},{64},,{128},E5,{4},{16},{128},E7,{4},{16},,{256},,,E8,
{4},{16},,{64},,{128},C,{4},{16},,,{64},{256},,,C,
{4},,{64},{256},,,C,{4},,{16},,,{64},,{16}E8,
{32},,,,,,,,,,,,,Ch[32:73],
E
&inote_6=(174)
E
