&title=LaRiLaRu
&artist=BPM15Q
&first=1.95
&des=KaWaKaZe
&lv_5=13+
&inote_5=(126)
{4},,,,
{16}5/3h[16:3],,,5,{8}4,6,5/7v5[8:1],,3h[8:1],,
{16}4/6h[16:3],,,4,{8}5,3,4x/2xv4[8:1],,6xh[8:1],,
{16}3/5h[16:3],,,2,{8}4,1,2/5v7[8:1],,3h[8:1],,
{16}6/4h[16:3],,,7,{8}5,6,{16}3/5h[16:3],,,2,{8}4,3,
{8}B7/B6/E7,,7x>6[16:5]/3xh[8:4],,,,,,
{8}B2/B3/E3,,2x<3[16:5]/6xh[8:4],,,,,,
{8}B8/B7/E8,,8x>7[16:5]/3xh[8:4],,,,,,
{8}B1/B2/E2,,1x<2[16:5]/6xh[8:4],,,,,,
{4}B7/B6/E7,7x<3[16:2],B2/B3/E3,2x>6[16:2],
{4}B8/B7/E8,8x<4[16:2],B1/B2/E2,1x>5[16:2],
{4}8x-4[12:1],1x-5[12:1],8x<5[12:1],1xh[4:1],
{4}B5/B4/E5,{16}5,5,4,4,{8}36,45,3-1b[12:1]/6-8b[12:1],,
{8}36,,1/7h[8:1],2,3/B8/B1/C,,3h[8:1]/5,6,
7h[8:1]/4,3,2h[8:1]/5,6,7h[8:1]/4,3,2h[8:1]/5-1[8:1],6,
{8}7,,8/2h[8:1],7,6/B1/B8/C,,6h[8:1]/4,3,
2h[8:1]/5,6,7h[8:1]/4,3,2/5v2[12:1]*v8[12:1],,5,,
{4}3V16[4:1],6V83[4:1],4,
{8}5,6,4h[8:1]/7,8,5h[8:1]/3,1,4h[8:1]/6,1,5h[8:1]/3,8,
{4}2-5^7[4:1]/4,7-4^2[4:1],1,
{8}8,7,1h[8:1]/6,4,8h[8:1]/2
,5,1>3[12:1]/7<5[12:1],,,,
{16}4h[8:1],,5,4,,4,5,,4/5h[8:1],,4,5,,5,4,,
{16}4h[8:1]/6,,6,4,,3,5,,3/5h[8:1],,3,5,,6,4,,
{16}4h[8:1]/7,,7,4,,2,5,,5h[8:1]/2,,2,5,,7,4,,
{16}4h[8:1]/8,,7,4,,2,5,,5h[8:1]/1,,2,5,,7,4,,
{24}46,,3,4x,,2,5x,,3,4x,,2,5x,,3,4xV25[8:1],,2,5x,,,4x,,,
{24},,6,5x,,7,4x,,6,5x,,7,4x,,6,5xv7[12:1],,7,4x,,,5x,,
{24}1,8x,,2,7x,,1,8x,,2,7x,,1,8x,,3,6x,,1,8x,,3,6x,,,
{4}B1/E1/B8/B5/B4/E5,E3/D3/E7/D7,Chf[8:2]/1-5b[12:1],1b,
{4}36,{48}2x/5x,3x/6x,4xh[12:1]/7xh[12:1],{16},,,{48}4x/7x,3x/6x,2xh[12:1]/5xh[12:1],{16},,,
{48}2x/5x,3x/6x,4xh[12:1]/7xh[12:1],{16},,,{48}4x/7x,3x/6x,2xh[12:1]/5xh[12:1],{16},,,
{48}2x/5x,3x/6x,4xh[12:1]/7xh[12:1],{16},,,{48}4x-1[12:1]*-7[12:1]/7x,3x/6x,2x/5x,{16},,,{4}4,
{24}17,,2x,8,,,34,,6x,5,,,28,,,7x,1,,56,,3x,4,,,
{24}17,,2x,8,,,45,,3x,6V47[8:1],,,4,,,36,,,{16}1,1,8,8,
{4}27,{48}1x/6x,2x/7x,3xh[12:1]/8xh[12:1],{16},,,{48}3x/8x,2x/7x,1xh[12:1]/6xh[12:1],{16},,,
{48}1x/6x,2x/7x,3xh[12:1]/8xh[12:1],{16},,,{48}3x/8x,2x/7x,1xh[12:1]/6xh[12:1],{16},,,
{48}1x/6x,2x/7x,3xh[12:1]/8xh[12:1],{16},,,{48}3x/8xV24[8:1]*V64[8:1],2x/7x,1xh[12:1]/6xh[12:1],{16},,,{4}8,
{24}53,,6x,4,,,78,,2x,1,,,64,,,3x,5,,12,,7x,8,,,
{4}A1/E2/A2/A5/E6/A6,B3/B4/B7/B8,Chf[8:2]/1-5b[12:1],1b,
{4}5-1[12:1],{48}2x,3x,4x-8[12:1],{16},,,{48}7x,6x,5x-1[12:1],{16},,,
{48}2x,3x,4x-8[12:1],{16},,,{48}7x,6x,5x,
{16},,,1,1,8,8,{8}27,45,3-1b[12:1]/6-8b[12:1],,
{16}3/6,,,,1,1,8x,1,36,,2x/7x,,4-2[12:1]/5-7[12:1],,,,
{16}45,,1x,1,1,,2x/7x,,4-1[12:1]/5-8[12:1],,,,45,,,,
{4}1-5[12:1]/8,{48}6x,7x,8x-4[12:1],{16},,,{48}3x,2x,1x-5[12:1],{16},,,
{48}6x,7x,8x-4[12:1],{16},,,{48}3x,2x,1xp5[12:1],{16},,,
{48}6x,7x,8xq4[12:1],{16},,,{48}3x,2x,1x-5-3[147#6:1]*-5-7[147#6:1],{16},,,{4}1,
{8}82,4x/5x,{16}1h,1h,8xh,8h,{8}27,45,3-1[12:1]/6-8[12:1],,
{4}36,B2/B3/E3/B7/B6/E7,1>4b[12:1]/5h[8:1],{32}5-1[12:1],6,7,8,,,,,
{8}85,,1/7h[8:1],3,4/B7/B6/C,,3h[8:1]/5,7,
8h[8:1]/4,2,1h[8:1]/5,7,8h[8:1]/4,2,1h[8:1]/5-1[8:1],6,
{8}85,,7/2h[8:1],6,5/B2/B3/C,,6h[8:1]/4,2,
1h[8:1]/5,7,8h[8:1]/4,2,1/5-2[12:1]*-8[12:1],,5,,
{4}3V16[4:1],6V83[4:1],4,
{8}5-2[8:1],6,5-8[8:1],7,5-2[8:1],4,5-8[8:1],6,5,3,
{4}2-5^7[4:1],7-4^2[4:1],1,
{8}8^3[8:1],7,8^5[8:1],7,8w4[8:1],1,8,,,,
{4}3h[4:7]/6,E6,E5,E4,E3,E2,E1,E8,
{4}6h[4:7]/3,E4,E5,E6,E7,E8,E1,E2,
{16}4x,5,3,6,
4x,5,3,6,
4x,5,3,7,
4x,5,3,7,
{16}4x,5,3,8,
4x,5,3,8,
4x,5,3,1,
4x,5,3,1,
{16}4x,5,2x,1,
3x,4,1x,8,
5x,6,8x,7,
4x,5,2x,7,
{4}E5,E3/E7,1-5b[12:1]/8-4[12:1],1b/8b/Cf,
{8}36,21,{16}3,4,3,,{8}18,{16}6,5
,{8}47,35,
{16}18,,,2h[16:3]/4,,,8,,7h[16:3]/5,,,1,,,3,,
{8}46,{16}3,4,2h[8:1],,5,4,6h[8:1],,2,4,3h[8:1],,7,5,
{16}6h[8:1],,2,1,3h[8:1],,7,8,6h[16:3],,4,,3,4,2,5,
{8}1b,87,{16}6,5,6,,{8}81,{16}3,4
,{8}52,74,
{8}1-5[8:1]/8,,7-3[12:1]/1,8,2-6-4[6:1]/7,1,28,,
{8}36,{16}6,5,7h[8:1],,3,4,2h[8:1],,7,5,6h[16:3],,4h[8:1],,
{4}C,E1/E5,2v5[12:1]/7-4[12:1],2b/7b/Cf,
{4}5/4V68[8:1],
{48}1xV75[8:1],2x,3x,{16},,,{48}4x<8[8:1],3x,2x,{16},,,{48}1xp4[8:1],2x,3x,{16},,,
{48}4x,3x,2x,{16},,,1,1,8,8,{8}36,27,4-1b[12:1]/5-8b[12:1],,
{8}45,,{16}1b,1,8,1,36,,27,,4b-2[12:1]/5b-7[12:1],,,,
{16}45,,1,1,1b,,27,,4-1b[12:1]/5-8b[12:1],,,,4b/5b,,,,
{4}1/8V24[8:1],
{48}5bxV31[8:1],6x,7x,{16},,,{48}8xV25[6:1],7x,6x,{16},,,{48}5xbV38[6:1],6x,7x,{16},,,
{48}8x>4[8:1],7x,6x,{16},,,{48}5bxp8[8:1],6x,7x,{16},,,{48}8xw4b[12:1],7x,6x,{16},,,
{4}8xb,{8}17,4x/5x,{16}1bh,1h,8xh,8h,{8}2-5[12:1]/7v4[12:1],18,2b/7b,,
{4}E1,B3/B6,8/1p5[8:1]*q5[8:1],,
{16}B2/B3/C,,6,5,6,,7,,76,,8,6,7,7,5,,
{16}B7/B6/C,,3,4,3,,2,,23,,1,3,2,2,4,,
{16}B2/B3/C,,6,5,6,,7,,76,,8,6,7,7,5,,
{16}B7/B6/C,,3,4,3,,2,,23,,1,3,2-5[8:1]/4-8[8:1],,31,,
{8}24,,
{16}6x,5,7,5,6,5,7,7,
{16}3x,4,2,4,3,4,2,2,
{16}6x,5,7,5,6,5,7,7,
{16}3x,4,2,2,
{16}6x,5,8,1,
4x,3,8,1,
{16}6x,5,7,8,
4x,3,1,2,
{8}37,,{16}4,4,5,5,{8}36,18,4-1[12:1]/5-8[12:1],,4b/5b,
