&title=ホワイトハッピー
&artist=MARETU feat. 初音ミク
&first=0.395
&des=Amatou_Kurage
&lv_5=13
&inote_5=(160){8}1,,1,,1,5,46,3,6/2q4[16:7],,,,,,,65,4/8q3[16:7]*p5[16:7],,,,,,,4,
{16}3b/5b,,3h[8:1],,6,5,,5,7,,7h[8:1],,1,8,,8,2-6[8:1],,2,,1-4[8:1],,1,,5,,,,6,,6,,
{8}3/7p5[16:7],,,,,,,34,5/1p6[16:7]*q4[16:7],,,,,,,5,
{16}7b/3bV52[4:1],,,,8,,8z4[4:1],,,,1,,2,,3,,6b/5b,,7,,3b/4b,,2,,7b>3[8:1]/5bv3[8:1],,,,,,,,
{16}
5b/4b<7[8:1],,,,2v5[8:1]/4,,,,1,,8,,7/6-4[8:1],,,,2-6[8:1],,1,,8,,7h[4:1],,,,5,,57,,6,,
4/5>2[8:1],,,,7v4[8:1]/5,,,,8,,1,,2/3-5[8:1],,,,7-3[8:1],,8,,1,,2h[4:1],,,,4,4,3,,45,,
4/5-2[8:1],,,,7-4[8:1]/5,,,,1-6[8:1],,2,,3-8[8:1],,,,7,,7,,6,,1/5pp6[4:1],,,,2,,2,,3,,
5/4-8[8:1],,,,24,,,,7,,2-5[8:1]/6-1[8:1],,1,,2b<7[8:1]/6b>3[8:1],,,,2b/6b,,,,1b/5b,,1b/5b,,,,,,6,,
{16}4b/8b-6[8:1],,,,4v6[8:1],,,3,3,,2h[8:1],,5-7[8:1],,5,,3-5[8:1],,3,,8,,6,6h[16:3],,,5,,57,,4,5,3h[4:1],,1,,4h[4:1],,1,,3,,42,,1-5[8:1]/5,,,,7b,,7b,,,,,,3h[256:1],4h[256:1],3h[256:1],4h[256:1],3h[256:1],4h[256:1],3h[256:1],4h[256:1],
1b-3[8:1],,,,5v3[8:1],,,6,,7,7h[8:1],,4-2[8:1],,4,,6-4[8:1],,6,,1,,3,3h[16:3],,,4,,42,,5,4,6h[4:1],,8,,5h[4:1],,8,,6,,57,,8-4[8:1]/4,,,,2b,,2b,,,,,,6h[256:1],5h[256:1],6h[256:1],5h[256:1],6h[256:1],5h[256:1],6h[256:1],5h[256:1],
{16}8b,,2h[8:1],,4h[8:1],,5h[8:1],,6>4[8:1],,6,,2q6[8:1],,2,,1,,1h[8:1],,3h[8:1],,4h[8:1],,5>3[8:1],,5,,7p3[8:1],,7,,2-6[8:1],,,,12,,,7,5,,4,,35,,2,,45,,7,,46,,8,8,5bw1[8:1],,,,5b,,,,
57,,6,,45,,3,,2/4<6[8:1],,4,,2q6[8:1],,2,,8,,8,,57,,3,,4q8[8:1]/2,,4,,2q6[8:1],,2,,1,,,,75,,3,4,2-6[8:1],,17,,26,,,,34,,6,5,8-4[8:1],,57,,48,3,2,1,8,7,6,5,
4/8b,,,,4,,,4,7,,4,,,,4,4,7,5,6,6,4,5,4,5,{12}1,4,3,8,5,6,
{6}2h[4:2],1,8,7h[4:2],6,5,4>1[4:1],,8,8<5[4:1],,3,3-6[4:1],,7,7h[4:2],8,1,2q4[12:7],,{12}6,6,{4}5h[12:4],,{16}65,,7,5,6,5,7,,64,,7,5,6,4,5,,34,,2,4,3,4,2,,35,,46,,57,,81,,2-5[8:1]/4-8[8:1],,,,24,,,,37,,3-8[8:1]/7-4[8:1],,37,,3b<6[8:1]/7b>2[8:1],,,,3b/7b,,,,4b/8b,,4b/8b,,3,,7,,1b,,,,1b,,,,1b,,1b,,,,,,,,
{4}5b-8[4:3],,,,4-1[4:3],,,,5-8[4:3],,,,4,,4,,5<8[4:3],,,,4>1[4:3],,,,5<8[4:3],,,,4h[4:2],,{8}5,4,73,,
{8}6b-2[8:1]/5b,,1v4[8:1]*-6[8:1]/6,,1-3[8:1],,5-2[8:1],6,8-4[8:1],7,6-1[8:1]*-2[8:1],8,6,,4-7[8:1],3,1-5[8:1],2,3-8[8:1]*-7[8:1],1,3,,2-8[8:1],7-5[8:1],2V41[4:1],7,2,6,6-3[8:1]*>3[8:1],,6,,
{8}3-7[8:1]/4,,8v5[8:1]*-3[8:1]/3,,8-6[8:1],,4-7[8:1],3,1-5[8:1],2,3-8[8:1]*-7[8:1],1,3,,5-2[8:1],6,8-4[8:1],7,6v1[8:1],8,62,{16}2,3,{8}4,65,4V28[8:1]/8V64[8:1],,,,2>5[8:1]/6<1[8:1],,26,,
4bpp8[8:3]/8b,,43,3,,1,17,6,4/5pp4[8:3],3,2-5[8:1],1,2,,,3,5/4qq5[8:3],6,7-4[8:1],8,7,,7-1[8:1],2-4[8:1],7V58[4:1],2,7,1,1w5[8:1],,1,,
{8}3p7[8:1]/4,,8v5[8:1]*>3[8:1]/3,,8<6[8:1],,4v7[8:1],3,1p5[8:1],2,3>8[8:1]*p7[8:1],1,3,,5v2[8:1],6,8q4[8:1],7,6<1[8:1],8,62,{16}2,3,{8}4,65,{16}48,,3,4,2,,81,,6,5,7,,
2,6,4,8,2-6[8:1],,,,4pp4[8:3]*qq4[8:3],,,,,,,,,,,,8bz4[8:1]/1bs5[8:1],,,,1b>7[4:1]/8b,,,,,,8,,8,,,,
{16}5b-1[8:1],,,,3-5[8:1],,,,7-4[8:1],,,,8,,1,,2h[4:1],,3,,4,,5,,4/6v4[8:1],,,,,,1,,2h[4:1],,3,,4,,5,,4/6v4[8:1],,,,1,,1,,{24}1,2h[24:5],,,,,8,7h[24:5],,,,,3,4h[24:5],,,,,6,5h[24:5],,,,,
{16}4-8[8:1],,,,6-4[8:1],,,,2-5[8:1],,,,1,,8,,7h[4:1],,6,,5,,4,,5/3v5[8:1],,,,,,8,,7h[4:1],,6,,5,,4,,35,,2,4,3,,6,,4>1[8:1]/5<8[8:1],,,,,,,,2-5[8:1]/7-4[8:1],,,,27,,,,
3-1[8:1],,,,7,,,,3v8[8:1],,,,6,,6,,5-7[8:1],,4,,3,,2,,5v8[8:1],,,,,,3,,4-2[8:1],,5,,6,,7,,4v1[8:1],,,,8,,8,,{24}8,7h[24:5],,,,,1,2h[24:5],,,,,6,5h[24:5],,,,,3,4h[24:5],,,,,
{16}5-7[8:1],,,,3-5[8:1],,,,8h[8:2],,,,2,,2h[8:1],,4h[8:1],,3h[8:1],,6h[8:1],,5h[8:1],,7v5[8:1],,,,,,2h[8:1],,4h[8:1],,3h[8:1],,6h[8:1],,5h[8:1],,7,,1,8,1,,2,,3/4w8[8:1],,,,,,,,26,,4,,73,,5,,4-8[8:1]/6,,,,7-4[8:1],,,,1-5[8:1],,,,6,,6,,3b/4b,,1,,6b/5b,,8,,2b/7b,
