&title=ゲッタバンバン
&artist=佐香智久
&first=-0.07
&des=Cinno vs skylight1354
&lv_5=12+
&inote_5=(167){2},
{8}2,2,8,8,1,1,7,7,
{16}2,8,2,8,{4}2xh[4:11],,,B2,B8,B3,B7,B4,B6,B5,C,7xh[1:2],B8,B6,B1,B5,B2,B4,C,
{4}1x>6[2:1],{8},7,7,,,8,1-4[8:1]/7,,6-1[8:1],,2,,8,8,
{8}7/1>4[4:1],,4<7[4:1],,7>2[4:1],,2-4-6-8-2[2:1],,8xh[2:1],,,,,
{8}7-5[8:1],1,2,,7-4[8:1],1,2,,7-3[8:1],1,2,,
{8}1,8,17,6<1[8:1],1>4[8:1],6,,,2,1,28,,78,,12,,
{8}8,1,28,3-8[8:1],6-3[8:1],3,6,2q5[2:1],,,8,8,,,7,
{8}6/8>3[8:1],,8<5[8:1],,8-4[8:1],,6,7,8/2>5[8:1],,25,,7-3[8:1]/3,,71,,
{8}1qq5[2:1]*pp5[2:1],,,,,,,37,,28,,1>4[8:1]/6,,5,6,7,
{8}8-4[8:1]/2,,3qq8[2:1],3,,,,5,,7,6,5<8[8:1]/3,,2,3,4,7/5-2[8:1],,
{8}8qq4[2:1],8,,3,,2,,1,2,3>8[8:1]/5,,6,5,4,
{8}1/3-7[8:1],,8pp4[2:1],8,,,,5,,7,6,5-8[8:1]/3,,2,3,4,5v2[8:1]/7,,
{8}8,8<5[8:1],,8>3[8:1],,8-4[8:1],,1,1h[4:1],,
{8}3h[4:1],,5,4/6h[2:1],,5,5,5,4,3/5-1[8:1],,2h[2:1],,8,8,8,1,2>5[8:1]/8,,
{8}1h[2:1],,3,3,3,2-5[8:1],2,8-4[8:1],8,
{8}1>4[8:1],,1/6-1[8:1],,6/5>2[8:1],,5/8,,7,6/8,,1,2/8,,5,4/6,,1/8,27,,
{32}1,2,3,4,5,6,7,8,
{8}1,8x-4[8:1],,68,5w1[8:1],,5b`Cf,,37,1-5[8:1]/5,,13,4w8[8:1],,4b`Cf,,
{8}26,8-4[8:1]/4,,68,7w3[8:1],,7b`Cf,,15,
{8}7pp2[2:1],,2,3,4,3,3,4,5-1[8:1],,,8<4[8:1]*>4[8:1],,8xv5[8:1]*v3[8:1],,,,
{8},8,2>5[8:1],,25,6,7,8p3[8:1],,,1>5[8:1]*<5[8:1],,1xv4[8:1]*v6[8:1],,,,,
{8}2/8,,
{16}17,,7,5,6,4,5,3,
{8}4>6[4:1],,46,5w1[8:1],,5b`Cf,,13,5<3[4:1]/7,,35,4w8[8:1],,4b`Cf,,86,
{8}2>8[4:1]/4,,28,1w5[8:1],,1b`Cf,,37,15,,1-5[8:1],8-6[8:1],1-3[8:1],8-4[8:1],
{8}1>8[4:1],,,,,
{8}5<1[8:1]*>1[8:1],,5xv8[8:1]*v2[8:1],,,,
{8},5,3v8[8:1],,38,7,6,5q2[8:1],,,4>8[8:1]*<8[8:1],,4xv1[8:1]*v7[8:1],,,,,
{8}8,8,8,7,6/5-1[8:1],,7h[2:1],,2,2,2,1,2,3,3,
{8}8,8,17,1,2,2,13,1h[4:1],,3h[8:1],1h[8:1],2h[8:1],8h[8:1],1h[8:1],7h[8:1],,
{4}1b-7[8:1],2b-6[8:1],3b-5[8:1],
{8}8,8qq4[2:1],,3,3v1[8:1],,3,,2,2,
{8}7h[4:1],,5h[4:1],,3,3h[4:1],,1h[4:1],,
{8}6h[8:1],8h[8:1],7h[8:1],1h[8:1],8h[8:1],2h[8:1],,
{8}8-2[8:1],,7-3[8:1],,6-4[8:1],6,,1pp5[8:3],,6,7,8,,
{8}8,7,6,5<8[8:1],,52,,3,3-7[8:1],,35,,16,27,38,4w8[8:1]/1,,
E
