&title=IMAWANOKIWA
&artist=いよわ
&first=0.05
&des=xiaon269
&lv_6=14
&des_6=xiaon269
&inote_6=
(89){4},{8},,,,,,4/7<5[16:1],
2h[8:1],7x,{16}4pp8[4:1],4,{8}2,1h[8:1],,2,
{48}7x/D7,A6,{24}D6,{48},,1x/D2,A2,{12}D3,4h[8:1],{24},{8}5qq2[4:1],{16}6,7,{8}8<5[16:1],1,8x,
1>4b[8:1],4qq8b[4:1],{4}6h[16:3],{16}6,7,,7,,8/2,{8}7/1,
2h[4:1],8,6h[16:3],{16}4,3,{32},,3/6,2/7,{16}1-4[16:1]/8-5[16:1],8xh[16:1]/1xh[16:1],,,,,,,,,,,,,,,,,,,7/2,
{32}1,8,
{16}1,7,6/2,{32}5,3,{16}4,6,8/1,{32}1-5[16:1],7,1,,,2/8,,,{16}1x/3xh[4:1],,E6,E7,E8,
{32},,1,2,{16}3,{32}5,6,{16}7,{32}1,2,{16}3,{32}4/5,4/5,,,3,5,2,6,1,7,{16}8-4b[32:1],1h[16:1],,,8x,
{32}3x,5,3,5,{16}3,2<6p4[16:5],1h[16:7],,,2x,,,C,,2,,3/5>2[16:1],
2q8[8:1],6,,6h[16:3],,,,5,1x/5xw1[16:1]*w1[16:1],6/2,7/3,8/4,A5,{32},,,,8,1,
{16}8,2,3/7,{32}4,6,{16}5,3,1/8,{32}8z4b[16:1],2,8,,,7/1,,,{16}8/6h[4:1],,E4,E3,E2,
{32},,8,7,{16}6,{32}4,3,{16}2,{32}8,7,{16}6,{32}5/4,5/4,,,6,4,7,3,8,2,{16}1pp4>1b[8:3],8,{8}8h[8:1],
{32},,7,6,{8}5,{16}6,7,,,1-4<5[8:1],2,5-8>1[8:1],6,{4}7,
{8}6h[16:3],5h[16:3],{16},4q6[16:3],,6,{8}6-8-2-4[8:1],C,{16},,,,7h[8:1]/5h[8:1],
,,8/2,8h[8:1]/2h[8:1],,,8/2,{32}3x/7x,7xh[16:1]/3xh[16:1],,,{8}6h[32:3]/4h[32:3],6h[32:3]/4h[32:3],4/6,
(178){1}3q3<4[4:3]`7pp7<6b[4:3],
{4},,,8w4b[8:1],
A8f/D8f/D1f,{16}6x-1[8:1],6,{8}1x-4[8:1],4x-7[8:1],3,2,1-3b[8:1],
8-4b[8:1],1,{4}8,{8}5x/6xh[4:1],4,{4}3>8[8:1],
{8}7<4b[8:1],7,1>4[8:1],1,6<1b[8:1],6,3,2,
2/8,3/7,4/6,3/5,{2}1-5[8:1]/7-4[8:1],
{4}7xh[2:1],{8}5,{24}5,4,3,{8}2xh[2:1],,,8,
{24}8,7,6,5xh[8:5],,,,,,{8}1,{24}1,2,3,4xh[8:1],,,,,,,,,{8}7,
{16}1,8,{8}1,4/2,5h[4:1],3,2,1/8,
2>4[8:1],8<6[8:1],2-6[8:1],8-4[8:1],2,8,{4}3xp7[8:1]*-6b[8:1],
{16},,,,1,8,7,6h[16:3],{8}4,5,6-1[8:1],{16}4x,3x,
{4}2x/6x,{16}8h,7,6,5/8h,1,2,3,4,{4}5h[4:1],
{8}6V42[4:1],7,{4}8z4[8:1],{16},,,,2x,6,2,6,
1x,5,1,5,8x,4,8,4,{4}8>3[8:1]*V24[8:1],8V64[8:1]*<5[8:1],
{8},,,1/3,{4}3h[8:1]/1h[4:1],2pp5[2:1],
2,{8}6,7,{16},,8,1,{8}7,7/1,
3,3/4,5,6/8,7,1/2,3/8,4/7,
{4}6/5-1[8:1],5x/4h[4:3],{2}8h[2:1],
{16},3/7,2/6,1/5,8,7,6,5,4,3,2/6,1,8,7,6,5,
{4}4/8p6[2:1],{8}A3,A2,,A1,{24},,,,,,7xh/E7,
B6,,{8}4,3,{24}1xh/D2,A2,,,,,{8}7/3,{4}8h[8:1]/4h[8:1],
{16}4xh,8xh,3xh,7xh,2xh,6xh,1xh,5xh,3xh,4xh,{8}5xh[4:1],,4,
{4}5<8[8:1],5/1-5[8:1],1/2>4[8:1],2/6-1[8:1],
5/6>3[8:1],6qq2[8:3]/7q2[8:3],{8},,,,1x,
{16}1,8,{8}7,6/2,3,4/5,6,7/8,
1,{24}2xh/D3,A3,D4,,,,8xh/D8,A7,D7,,,,1xh,B1,Cf,,,,,,,{1}3x<6pp4qq5[2:3],
{4},,,,8h[6:1],
{8}7/8,6,5,{16}4,3,{8}4,3/1,
{4}2h[6:1],{8}1/2,8,7,{16}6,5,{8}6,5/3,
{4}4h[6:1]/6h[6:1],{8}4/6,5,4,{16}4,3,{8}2,1/8,
,2x/7x,{4}1xh[2:1]/8xh[2:1],{8},,,,8bqq7[4:1]/1bpp2[4:1],
,,,,3/6,1/8,7/2,
3b/4b,6b/5b,3b/1b,7b/6b,2-6b[8:1]/1-5b[8:1],1/2,{4}2b/1b,
{8}4x,5,6,7h[8:7],3,2,1,8h[8:3],
,,,,5/4,2/7,1,6,
7x/8x,8,{16}2,8,{8}1,7,{16}4,4,,6,,,{8}7x/8x,
7,{16}7,6,{8}5,3,{16}2,2,,1,,,{8}8x/7x,
1,{16}1,2,{8}3,3,{16}5,5,,6,,,{8}8x/7x,
6,{16}1,5,{8}1,2,{16}1,6,,8x/7x,,,{4}4-6[8:1],
3-8[8:1],4-7[8:1],3>8[8:1],
4q8[8:1],3q7[8:1],4v7[8:1],3v8[8:1],
4V68[8:1],3-1-7[8:1],,8b,
8s4[4:1]/7z3[4:1],,,1b-5b[16:1],
A1f,{16}4,5,{8}4v3[8:1],5h[4:1],,,5<2[4:1],
4,2p4[4:1],{4}3h[4:1],{16},,2,2,{4}2/6,
{8}4<7[8:1],{16}4,3,{8}4x,{16}2x,3,{8}4>1[8:1],{16}4,5,{8}4x,7-3[8:1],
8/6h[4:1],7x,,2qq7[8:3],{2}5bh[4:1],
{4}6xh[2:1],{8}8,{24}8,1,2,{8}3xh[2:1],,,5,
{24}5,6,7,8xh[8:5],,,,,,{8}4,{24}4,3,2,1xh[8:1],,,,,,,,,{8}7,
{16}1,8,{8}1,4/2,5h[4:1],3,2,1/8,
7<5[8:1],1>3[8:1],7-3[8:1],1-5[8:1],7,1,{4}8b-6b[16:1]*-4b[16:1],
A8,{16}8,1,2,3,{8}4,4/6,{4}7pp7[4:1],
3xh[8:1]/7xqq6b[4:1],2h[8:1],{16}1,8,7,6,{4}5h[4:1],
{24}2,3,4,5h[8:1],,,,7,6,5,{12}4h[3:1],,,,{4}8b-5[8:1]*-6[8:1],
8b-3[8:1]*-2[8:1],8b,{16}5x,1,6,2,7,3,8,4,
{4}1bp8[2:1],{8}A4,A5,,,{4}E3/D3,
6>3[4:1]*-3[4:1],{8},,,,6/3,2/7,
{4}1/8,{8}1/8,8,{16},,8,7,{8}6,1,
{16},,1,2,{8}3,4h[2:1]/5h[4:1],{16},,,5h[16:1],,,,,6b,
7,8,2b,3,4,8b,7,6,1b,2,3,7b/4,6,5,8b/4,
1,2,4b/3,5,6,7,4b/8,3,2,1,8,{32}A7,D7,A6,D6,A5,D5,{8}A4,
3xh[2:1],5,6,7,{4}8,1x-4[8:1]*-6[8:1],
1x-5[8:1],1-3[8:1]*>4[8:1],1v6[8:1]*-7[8:1],1,
4<8[4:1],8>4[4:1],4<8[4:1],8-4-2-5[2:1],
5,{16}6,7,{8}8,7b,7b,{4}6/1,
{32}7h,B2,,,{8}1,7,{32}3h,B6,,,{8}2,8,1,1h[1:1],
{16}B8,B7,B6,B5,{12}E5,B4,B3,{8}B2,B8/B1,{4}B4/B5,
{8}1>6[4:1],1,6p8[4:1],7,{4}8p4[4:1],1xh[8:1],
2-8[8:1],5/2-4[8:1],7/2-6[8:1],2b,
{24}3xh/D4,A4,,{8}6,8,{24}7xh/D7,A6,,{6}3h[4:1],,3,
{24}5xh/D6,A6,,{8}8,1,{24}2xh/E3,B3,{48},,,,,,,,{16}5,6,{8}5,8/1,
{32}2xh/7xh,D7/D3,A6/A3,D6/D4,,,,,,,,,{8}6,{4}2h[8:3],{8}8,7p3[4:1],
7,3<7[4:1],2,1,{4}8,1-5[8:1]/2-4[8:1],
{8}1b/2b,,,5/6h[8:1],5,4/2h[8:1],4,7/8,
{16}1,8,2,7,1,8,2,7,{24}8b,1,2,3,4,5,1b,8,7,6,5,4,
{1}8bpp3>1b[1.3483##1.0112]*qq5<7[2.6966##1.0112],
E
