&title=WOLF
&artist=須田景凪; ヒトリエ
&first=0
&des=悲しい雨
&lv_5=13+
&inote_5=(205)
{1},,,,,
{16}1,5,1,5,1,5,1,6,2,7,3,8,4b-8[8:1],,,,
{4}6^3[8:1],6^1[8:1],6qq1[3:1],,
{4},2-4[8:1],1-5[8:1],2,
{4}3^6[8:1],3^8[8:1],3pp8[3:1],,
{4},7-5[8:1],4-8[8:1],7,
{4}5^8[8:1],5^2[8:1],5pp4[3:1],,
{4},1-5[8:1],8-6[8:1],1,
{4}4^1[8:1],4^7[8:1],4qq5[3:1],,
{4},8-4[8:1],3-1[8:1],8,
{8}6hx[8:3]/4x,,,5,,,6,4,
{8}3h[8:3]/5,,,4,,,2,4,
{8}5h[8:3]/3,,,6,,,7,5,
{8}4h[8:3]/6,,,3,,,2,5,
{8}6h[8:3]/4,,,5,,,7,4,
{8}3h[8:3]/5,,,4,,,5,4,
{8}6h[4:1],,5,4/7,,,5,{16}3,4,
{8}2,2,7/3,7,8/4,4,1/5,1,
{8}2q7[2:1],,,,7>3[16:8],,,,
{4}5h[2:1],,2-6[4:1],,
{8}7p2[2:1],,,,2<6[16:8],,,,
{4}4h[2:1],,2q6[8:1]*p6[8:1],,
{4}7h[2:1],,1h[2:1],,
{4}3h[2:1],,5h[2:1],,
{4}6>3[16:3],,2q7[16:3],,
{4}8q1[8:3],,,8b,
{1}1pp1[2:1],
{1}5pp5[2:1],
{2}1h[2:1],4-8[8:1],
{4}6-2[8:1],4w8[8:1],4,,
{8}8b/2bpp1[4:1],,7,7,6pp7[16:3],,4,3,
{8}2^5[8:1]*-6[8:1],,2,,8^3[8:1],3,4,,
{8}5-1[8:1],,7-4[8:1],,8,,6,,
{8}5-1[8:1],,7-4[8:1],,8,,6,,
{8}6b-3b[8:1],,2-5[8:1],,6<4[4:1],,4,,
{8}6<4b[4:1],,4,,5-1[8:1],,6,,
{8}7-5[8:1]/8-4[8:1],,7/8,,3,3,1/4,,
{16}8,3,6,5,6,,4b/3b,,,,1,6,{32}3x,4x,5x,6x,7x,8x,1x,2x,
{8}3x/5xpp4[4:1],,4V28[16:3],2,2,,4,5,
{8}8-3[8:1]*-5[8:1],,8,,1^6[8:1],6,5,,
{8}4-8[8:1],,1^6[8:1],,3,,1,,
{8}4-8[8:1],,1^6[8:1],,3,,1b/2b,,
{8}3-6[8:1]/6-3[8:1],,3/6,,7p2[8:1]/2v7[8:1],,7/2,,
{8}1/8-5b[8:1],,3,2,4,4,3b/5b,{16}6,7,
{16}8h[4:1]/2,,,,1,8,1,8,1,8,1,8,1,8,1qq1[8:5],8,
{1}1pp1[2:1],
{1}4b>5[1:3]/5b,
,
,
{4}4h[8:1],3h[8:1],2h[8:1],{16}8-4[8:1],1,8,1,
{4}8<1[8:6],,8h[8:1],8h[7:1],
{8}7h[8:3],,,6h[8:3],,,5,,
{8}8-5[8:1]/1,,,,1h[8:1],,{16}1,2,3,4,
{16}8,,5,6,4,,8,,3/4,,1,,6/5,,,,
{8}7h[4:1],1,1,8h[4:1],2,2,1h[4:1],3,
{8}3,2^7[8:1],2,4,4,,5/6,,
{8}2h[4:1],8,8,1h[4:1],7,7,8h[4:1],6,
{8}6,7v4[8:1],7,5,5,,4/3,,
{8}7h[4:1],5,5,6h[4:1],4,4,5h[4:1],3,
{8}3,4-8[8:1],4,2,2,,5/6,,
{8}3h[8:1],4h[8:1],5h[8:1],6h[8:1],
{8}2h[8:1],4h[8:1],5h[8:1],7h[8:1],
{16}2,1,8,7,6,5,4,3,2/7,8,1,2,3,4,5,6,
{8}7/1h[4:1],,4,7/3,,,2/8h[4:1],,5,2/6,,,7b-1[8:1]/2b,,,,
{384}6b-2[8:1]/4b,,,,,,,,,,,,,,,,,,,,,,,,,,,,,,,,,,,,,,,,,,,,,,,,,,,,,,,,,,,,,,,,,,,,,,,,,,,,,,,,,,,,,,,,,,,,,,,,,,,,,,,,,,,,,,,,,,,,,,,,,,,,,,,,,,,,,,,,,,,,,,,,,,,,,,,,,,,,,,,,,,,,,,,,,,,,,,,,,,,,,,,,,,,,,,,5b<4b[25.75#16:11],{2}4b<4[25.75#16:11],
{2},,,
(102.5)
{1},,,
{2},
(205)
{16}8>6[4:1],2,6,4,8x,,Cf,,,,1,6,{32}3,4,5,6,7,8,1,2,
{8}5/3pp2[4:1],,8/3,8,7,,1pp1b[4:1],7,
{8}8qq8b[4:1]/1,,8,,1-5[8:1],2,3/1,,
{8}4-8[8:1],,2-5b[8:1]/4,,3,,1,,
{8}4-8[8:1],,2-5b[8:1]/4,,3,,1b/2b,,
{8}8-4b[8:1],1,2-4b[8:1],1,7-5b[8:1],8,1-5b[8:1],8,
{8}7b-3[8:1],,3,2,4,1,1bx/5bx,{16}2/6,3/7,
{16}4/8h[4:1],,,,5x,1,4x,8,3x,7,2x,6,1x,5,8x,4,
{1}7x-2[2:1]/3x-6[2:1],
{4}6^3[8:1],6^1[8:1],6qq1[3:1],,
{4},2-4[8:1],1-5[8:1],2,
{4}3^6[8:1],3^8[8:1],3pp8[3:1],,
{4},7-5[8:1],4-8[8:1],7,
{4}5^8[8:1],5^2[8:1],5pp4[3:1],,
{4},1-5[8:1],8-6[8:1],1,
{4}4^1[8:1],4^7[8:1],4qq5[3:1],,
{4},8-4[8:1],3-1[8:1],8,
{4}7^4[8:1],7^2[8:1],7p4[3:1],,
{4},1-5[8:1],7^4[8:1],1,
{4}2^5[8:1],2^7[8:1],2q5[3:1],,
{4},8^3[8:1],5-1[8:1],8,
{4}5^2[8:1],5^8[8:1],5qq6[3:1],,
{4},1qq5[3:1],3,5,
{4}4^7[8:1],4^1[8:1],4pp3[3:1],,
{4},6pp5[2:1],4qq5b[4:1],,
E
