&title=チャンネル登録よろしくお願いします
&artist=GYARI
&first=0.03
&des=Aza
&lv_5=13
&inote_5=(140)
{1},
{16},3,4,3,4,,2/5,,{4},{16}6,5,6,,4,5,4,5,,3/6,,,1,8,1,,{4},,2x-6[8:1],7x-3[8:1]/2,2x/7,{16}2,1,2,,1/8,,7,8,7,1,6,1,6,2,,4,3,,,,4/5,,6,5,{2}7h[2:1],5bw1[2:1],,
{8}7-2[8:1]/8,{16}6,5,{8}7,3,4/5,6,7-4[8:1],{16}8,1,{8}7,2,3/4,2,1/5,{16}7,8,{8}7<4[8:1],1,2,3,{4}4-8[8:1]/5-1[8:1],4x/5x,{8}1x/2x-7[8:1],{16}3,4,{8}2,6,5/4,3,2-5[8:1],{16}1,8,{8}2,7,6/5,7,8/4,{16}2,1,{8}2>5[8:1],8,7,6,{4}5/4-2[8:1],4x-6[8:1],4x-8[8:1],4x,{16}1/7,,6,5,,,2/8,,3,4,,,{1}2b/7b<2[2:1],{4}C,
{8}1/8,{16}2,4,3,4,3h[8:1],,,,7,5,6,5,6h[8:1],,,,3,4,3,4,2pp3[4:1],5,{8}2,,6,6,{16}7,1,7,1,8h[8:1],,,,2,1,3,8,4h[8:1],,,,7,5,6,4,5h[8:1],,,,3/4,,2,1,2,1,3h[8:1],,,,7,8,7,8,6h[8:1],,,,4,5,4,5,3,6,{8}3q4<2b[1:1],,{1}Cf,{16}6hx[2:1],E3,E4,E5,E6,E7,E8,D1,D2,D3,D4,D5,
{8}7b-4[8:1],4x,7/3,2,{16}1,5,{8}1-5[8:1],6,1,7-4[8:1],4x,3/7,2,{16}1,5,2,6,{8}3-8[8:1],8x,3/7,6,{16}5,1,{8}5<8[8:1],2,5,3V15[4:1],4,5-2[8:1],6h[4:1],{4},{8}7/8,{16}1,6,2,7,3<6[8:1],3,{8},1,8,{16}7>2[8:1],7,{8},3,4,{16}5-1[8:1],5,{8},,8,7,1/6,{16}3,4,{8},1/2,3/8,{16}6,5,{8},1/8,{16}3,6,,2/7,,,{8}5/6,4/5,3x/4,2hx[8:1]/3hx[8:1],,{24}2b/3b,1x/4x,5xV36[3:2]/8xV27[3:2],{8}A7/D7f/A6,{1},{8},1x/2x,7x/8x,
4b/5b,1/2,4/5,7/8,4/5,1/2,4/5,7/8,4/5,1/3,4/5,6/8,4/5,1/3qq4[4:1],5,6x,7x,8h[4:1],{16}5,5,5,5,,7<3[4:1],{8},3,2,1-5[8:1],1,8x,8x,,{16}4hx[8:1]/7hx[8:1],,,2hx[8:1]/5hx[8:1],,,{4}2h[8:7]/8h[8:7],,,,{4}3bpp3[2:1]/7bpp7[2:1],,,,{8}B4/B6,B4/B6,{16}4,4,4,4,,2>6[4:1],{8},6,7,8-4[8:1],8,{16},1x,,,{4}2-5[8:1]/6-1[8:1],2bx/6bx,2/5,{8}3/4,2/5,{16}3/4,3h[16:5]/4,,,{8},7,8hx[1:1]/6hx[2:1],{4},,{8},E6,E5,E4,1x/2x,{16}8,3,7,2,6pp5[4:1],1,{8},2,3,4,3/4,{16}2,1,,7,8,,{4}5-8[8:1]/6,3/5-2[8:1],
{1}5b/7q1>6[1:1],{2},{16}7,8,7,1,8,1,7,1,7,2,8,2,{4}1p3<8[1:1],,,2h[4:1],,3h[4:1],,{8}4/8,7,{4}5p8>4[1:1]/6h[2:1],,,7h[4:1],,8h[4:1],5h[4:1],6qq3[2:1],,{8},{16}1,,,1,,,{8}2qq7[2:1]/8,,6x,6x,,5,4,5,{4}3>7p5[1:1]/6,,,,7h[4:1],,8h[4:1],,1h[4:1]/2h[4:1],,{8},E6/E4f/B6/B7/B8/B1/B2/B3,{16},E6f/E4/B6/B7/B8/B1/B2/B3,,,{2}E6/B6/B7/E8/B8/B1f/B2/B3/B4/B5,{8}2,3,4,5,{1}3/6p4-7[2:1],{4}2p8-3[2:1]/8,,{16},,7,,,,{8}7h[4:1],E6,E5,E4,6,6h[4:1],B4,E3,5,5h[4:1],B3,E2,4,4h[4:1],,5h[4:1],,{4}Chf[1:1],,,,B7/E7/B2/E3,,{8}3/4,4/5,5/6,
7h[8:1]/4h[8:1],,5/6,4/7,{16}5/6-1[8:1],5/6,{8},,,2h[8:1]/5h[8:1],,3/4,2/5,{16}3q5[4:1]/4,3/4,{8},,,7,1x/8x,{16}2,1,2,1,3-8[8:1],8,{8},7x,6,5,1/4,3/2,1h[4:1]/4,,{16}8,,,1x/2x,,,{8}3h[8:1]/8h[8:1],,1/2,3/8,{16}1-5[8:1]/2,1/2,{8},,,7h[8:1]/8h[8:1],,1/6,7/8,{16}1>5[4:1]/6,1/6,{8},7,8,1,{4}2hbx[4:3]/6hbx[4:3],,,,{16}3b/7b,,,1b/5b,,,{8}2b/6b,,1/2,7/8,
{16}1h[2:3]/B7f,B8f,B1f,B2f,B3f,B4f,B5f,B6f,B7f,B8f,B1f,B2f,B3f,B4f,B5f,B6f,B7f,B8f,B1f,B2f,B3f,B4f,B5f,B6f,{8}B7f,,1/2,3/4,5/6,{24}7x,4x,7x,4x,7x,4x,7x,4x,7x,4x,7x,4x,8x,4x,8x,4x,8x,4x,8x,4x,8x,4x,8x,4x,1x,4x,1x,4x,1x,4x,1x,4x,1x,{8}4x,{16}2/8,,,1/7,,,5/6-1-7-3-8-2-7-1-3-6-8b[4:5],,{1},{4},,{8},1/2,3/8,4/7,5/6,{16}3,4,3,2,,1>5[4:1],{8},8,7,6h[8:1],,{16}6,5,6,7,,8<4[4:1],{8},1,2,3h[8:1],,{16}2,1,2,3,,4/8,{8},3/7,2/6,1/5,{4}4x-7[8:1]/8,2/4x-1[8:1],4x-7[8:1]/6,2/4x>5[2:1],4x/6b,,{8}4-8b[8:1],,Cf,,
1/2-5[8:1],{16}3,4,{8}2,6,7,4/8,1/2-6[8:1],{16}3,4,{8}2,7,8,1/6,2/5,{16}3,4,{8}3>8[8:1],5,3/6,7,{4}1-5[8:1]/8-4[8:1],1/8,{16}2x,1x,4x,5x,8x,7x,4x,5x,2x,1x,4x,5x,8x,7x,4x,5x,2x,1x,4x,5x,8x,7x,4x,5x,2x,1x,4x,5x,8x,7x,4x,5x,2x,1x,4x,5x,{4}7x-5[8:1]/8x-4[8:1],7bx-3[8:1]/8bx-2[8:1],7bx-5[8:1]/8bx-4[8:1],7bx/8bx,{8}1/2,{16}3,5,,,7/8,,5,3,,,{1}1bpp4[2:1]/8bqq5[2:1],{4},{16}3,4,3,5,4,5,3,5,3,6,4,6,3,5,2<3[4:9],4,{1},,{8},,,,,{24}2b/3b,1x/4x,5xV36[24:43]/8xV27[24:43],{1}A7/D7f/A6,,{8},,C,
