&title=天河游泳
&artist=igel
&first=0
&des=五楽沢レオ
&clock_count=4
&lv_5=14
&inote_5=(178.00)
{1},
{8},,,,,,4`5h[8:0],,
{16}3/6<3[8:6],,,,4,,4,,
,,5,,5,,,,
{16}6<3[8:6],,6,,,,4,,
4,,,,5,,5,,
{16}6<3[8:6],,4,,4,,,,
5,,5,,,,6,,
{16}6q3[8:4],,,,8,,8,,
,,4,,4,,,,
{16}7/2>7[8:6],,,,8,,8,,
,,1,,1,,,,
{16}2q7[8:4],,2,,,,8,,
8h[8:2],,,,,,,,
{16}2h[8:2],,4,,4,,,,
6h[8:2],,5,,5,,,,
{16}3V52[16:5]/7V16[16:5],,,,,,,,
,,,,1b,,,,
{16}6,5,6,5,6,,4,,
7,,7,,2,,4,,
{16}3/5,,3,,6,,5,,
8,,1,,2/7,,2,4,
{16}3,5,4,6,5,,8,,
3,,3,,2/4,,4,,
{16}1/6,,7,,5,,8,,
2,,1,,8/3,,8,5,
{16}6,4,5,3,4,,1,,
7,,7,,3/4,,3,,
{16}2/5,,4,,6,,5,,
4/8,,2,,7,,3,5,
{16}2,4,1,3,8,,4,,
1/5,,1,,7,,3,,
{16}5pp4[8:4]/1pp8[8:4],,,,,,,,
,,,,,,,,
{16}1h[8:2]/2h[8:2],,,,,,,,
4h[8:2]`5h[8:2],,,,,,,,
{16}7qq3[8:4]`8pp4[8:4],,,,,,,,
,,,,,,,,
{16}1,5,1,5,2,6,2,6,
3,7,3,7,4,8,4,8,
{16}5-1[8:1],,,,8<1[8:3],,,,
,,,,,,,,
{16}3h[8:2],,,,,,,,
4/3h[8:2],,,,,,,,
{16}2h[8:2],,,,,,,,
2h[8:2]/4,,,,,,,,
{16}1h[8:2],,,,,,,,
5h[8:2]/1h[8:2],,,,,,,,
{16}8h[8:2],,,,,,,,
8h[8:2]/7-5[8:1],,,,,,,,
{16}3,,,,2/4,,,,
6,,,,4/7,,,,
{16}1h[8:1]/5h[8:1],,,,3h[8:1]/8h[8:1],,,,
4-6[8:1]/2-4[8:1],,,,,,,,
{16}8/7,,,,6/5,,6,,
6/3,,,,4/2,,2,,
{16}7/2-5[8:1],,,,1-6[8:1],,,,
4-1[8:1]*-7[8:1],,,,,,,,
{16}3h[8:2]/5,,,,4,,6,,
8h[8:4]/2,,3,4,5,6,5,4,
{16}3,,7,,6/8,,7,,
1,,2/6,,3/7,,4/8,,
{16}1<6[8:1]/5>2[8:1],,,,1/5,,,,
1/4,,1,,5/8,,8,,
{16}1v3[8:1]/4,,,,5v7[8:1],,,,
1-4[8:1]*q6[8:1],,,,,,,,
{16}3-8[8:1]/7-4[8:1],,,,3/7,,,,
1/5,,5,,5/4,,5,,
{16}5/8,,5,,5/6,,5,,
5/3-8[8:1]*-7[8:1],,,,,,,,
{16}1h[8:1]/6h[8:1],,,,4/5,,2/6,,
3h[8:1]/8h[8:1],,,,4/5,,1/8,,
{16}6/2-8[8:1],,,,7-3[8:1],,,,
1v4[8:1]*v6[8:1],,,,,,,,
{16}2h[8:3],,1,,1,,1,,
3h[8:2],,4,,4,,1,2,
{16}8/3h[8:1],,5,,2/7,,4,,
5-2[8:1]/6-1[8:1],,,,5/6,,,,
{16}3/8<5[8:1],,6,,4,,2,,
4/1v6[8:1],,3,,5,,7,,
{16}5/8,,8,,4/6,,6,,
5-1[8:1]/2-5[8:1],,,,2/5,,,,
{16}8-5[8:1],,6,6,8,,4,,
1-4[8:1],,3,3,1,,5,,
{16}7-3[8:1],,5,5,7V15[8:2],,,,
,,,,2,,,,
{16}3/6,,4,5,4,,1/8,,
6,5,6,7,6h[8:1],,1,,
{32}2b/8h[8:1],3,4,5,,,,,
{32}7b/1h[8:1],6,5,4,,,,,
{16}2b,5,4,7,1bw5[8:1],,,,
{16}1bqq3[8:14],,,,,,,,
,,,,,,,,
{16},,,,,,,,
,,,,,,,,
{16},,,,6,,,,
7/8,,,,1/2,,,,
{16}4/5,,6,,3/7,,2/8,,
1-5[8:1],1,1,1,1b,,,,
{16}7-2[8:1],,,,7/3-6[8:1],,,,
3/8-4[8:1],,,,2-5[8:1]/8,,,,
{16}6-1[8:1]/2,,,,6/3-8[8:1],,,,
3/7-3[8:1]*-4[8:1],,,,7,,,,
{16}1/8,,1/8,,2/7,,3/6,,
5,4,5,4,5,4,5,4,
{16}5>5[8:4]*<5[8:4],,,,,,,,
,,,,,,,,
{16}8/2-6[8:1],,,,7V51[8:3],,,,
4h[16:1],,4h[16:1],,3h[16:1],,3h[16:1],,
{16}8,2,6,,5/3,,1/7,,
2,4,3,,5/6,,1/2,,
{16}7/3qq2[8:2],,,4,3/4,,,,
8,7,6,5,1,2,3,4,
{16}6,2,8,1,7,3,5,4,
6,2,7,1,5,4/6,3/7,2/8,
{16}1s5[12:2]*s5[12:2],,,,1b/8,,,,
6,6,5,5,4,4,3,3,
{16}7,7,5,5,4,4,2,2,
8,8,6,6,4,4,2,2,
{16}6,5,3,2,7,6,4,3,8,7,2,1,
5,6,3,4,
{16}7b,8,6,2b,1,3,6b,5,
7,3b,4,2,8b,3,6,5,
{16}1b-5[8:12],,,,,,,,
,,,,,,,,
{16}2-6[8:12],,,,,,,,
,,,,,,,,
{16}3-7[8:12],,,,,,,,
,,,,,,,,
{16}4qq4[8:6],,,,,,,,
,,,,,,,,
{16}6h[8:12],,,,5,,,,
,,4,,4,,,,
{16}5,,,,3,,,,{24},,,4,7h[16:0],,4,,7h[16:0],,,,
{16}8h[8:2]/3,,,,1,,,,
{24}7h[16:0],,,2,6h[16:0],,2,,5h[16:0],,,,
{16}4h[8:2]/1h[8:6],,,,,,,,
7h[8:4],,,,,,,,
{16}5<4[8:3],,,,,,,,
,,,,{24}7/3,6/2,5/1,,,,
{16}2h[8:2]/6,,,,4,,8,,
3/6h[8:4],,2,1,8,7,8,1,
{16}2,,6,,4/5,,1,,
3/7,,{24}1,8,2,{8}1,3,
{16}4h[8:2]/2,,,,3,,6,,
7/5h[8:4],,2,,4,,6,,
{16}8,,3,,4,,1,,
2/7,,{24}4,5,3,{8}4,1,
{16}8h[8:2]/2,,,,4,,5,,
7-5[8:1]/1h[8:4],,,,7-3[8:1],,,,
{16}7,,2,,1/5,,2,,
8-5[8:1]/4-1[8:1],,,,,,,,
{16}3/7h[8:1],,,,4/5,,2/8,,
1h[8:1]/7,,,,3/4<7[8:1],,1/6,,
{16}2/4>1[8:1],,,,6/4-8[8:1],,,,
4/8w4[8:1],,,,,,,,
{16}2h[8:3],,1,,1,,1,,
3h[8:2],,4,,4,,1,2,
{16}8/3h[8:1],,5,,2/7,,4,,
5-1[8:1]/6-2[8:1],,,,5/6,,,,
{16}3/8<5[8:1],,6,,4,,2,,
4/1v6[8:1],,3,,5,,7,,
{16}5/8,,8,,3/6,,6,,
2-5[8:1]/4-8[8:1],,,,2/4,,,,
{16}7-4[8:1],,5,5,7,,1,,
2q6[8:1],,4,4,2,,7,,
{16}8-4[8:1],,5,5,8pp1[16:3]*qq7[16:3],,,,
,,,,8,,,,
{16}3/6,,4,5,4,,1/8,,
6,5,6,7,6h[8:1],,1,,
{32}2b/8h[8:1],3,4,5,,,,,
{32}7b/1h[8:1],6,5,4,,,,,
{32}2b-6[8:1],3,4,5,6,7,8,1,
2b,,,,,,,,
{24}1-5[8:1]/8-4[8:1],2/7,3/6,{16},,1b/8b,,,,
2/6-1[8:1],,5,,8,,4,,
{16}2-6[8:1]/5,,3,,4,,8,,5/7,4,3,2,5/1h[8:1],,4,2,
{16}7,6,5,4,1,8,1,8,
2,3,4,5,7,8,7,8,
{16}1/6-2[8:1],,2V85[8:2],2,6,,4,,
3,,,,4/2,,1/8,,
{16}3b/6h[8:1],,2,1,8b/4h[8:1],,1,2,
3b/7h[8:1],,2,1,8b/5,,2b/7b,,
{12}3h[8:0]/4b,1,1,5h[8:0]/6b,8,8,{16}2,3,
4,5,7,6,5,4,
{12}1h[8:0],5,3,8h[8:0],4,6,2h[8:0],8,4,7h[8:0],1,5,
{16}3b,7,3,7,2,6,1,5,
{24}8b,4,8,4,8,4,
8-4[8:1]*-4[8:1],4,8,4,8,4,
{16}8bpp6[8:10],,,,,,,,
,,,,,,,,
{16},,,,,,,,
,,1,,,4/3q5[16:11],,,
{16}6h[16:12],,,,,,,,
,,,,,,,,
{16}7/8,,7/8,,4/3,,3/4,,
2-6[8:1],2,2,2,2b,,,,
{16}5-8[8:1],,,,5/1v4[8:1],,,,
1/7>2[8:1],,,,3<6[8:1]/7,,,,
{16}3/8-4[8:1],,,,8/1-5[8:1],,,,
1<6[8:1]/8>3[8:1],,,,1/8,,,,
{16}4/7,,4/7,,2/5,,2/5,,
{24}1b,2,3,7b,6,5,2b,3,4,8b,7,6,
{16}5/2V83[8:4],,,,8,,,,
3-5[12:2],,,,6,,,,
{16},,,,,,,,
,,,,,,,,
{16},,,,,,,,
,,,,,,,,
{16},,,,,,,,
,,,,,,,,
