&title=大地の閾を探して -Looking for Edge of Ground-
&artist=Camellia(EDP) feat.Hatsune Miku
&first=0.42
&lv_5=15
&des_5=Crystallia With Lunafoto「一途」
&inote_5=
(87){4},{1},,{16},6>5-7-3-8>2[16:25],
,,{2}4<5-3-7-2[8:11],
{1},{4},{32}A7,
A6,A5,A4,E8,E7,E6,E5,{8}8h[16:3],{16}2,2h[16:3],,4,{8}4h[8:1],
6-8[32:3],6-3[32:3],,,1h[16:3],{16}7,7h[16:3],,5,{8}5h[8:1],
3-5[32:3],3-8[32:3],,,7h[16:3],{16}5,5h[16:3],,3,{8}3h[8:1],
1-7[32:3],1-4[32:3],,,6h[16:3],{16}4,4h[16:3],,2,{8}2h[8:1],
{16}1h[16:3],,,7h[16:3],,,{8}5,5h[16:3],,,4,
4h[16:3],,,3,3h[16:3],,,2,
2h[16:3],,,4,4h[16:3],,,3,
3h[16:3],,,2,{4}2h[4:1],{16}8,,,E8,
{24}E7,A6,,,,,,,,{8}5,5h[4:1],B1,A1,6,
6h[4:1],B2,A2,7,7h[4:1],B3,A3,8,
8h[4:1],B4,A4,7,{16}7,5,{8}6h[8:3],{16},,,2,
{4}2>5[8:1],8,{8}7h[8:1],6h[8:1],5h[8:1],2h[8:1],
{16}3h[16:3],,,4,{4}4h[2:1],{16}B6,,,,,,,7,
{4}7-5-1[8:1],{16}3h[4:1],,,2,{4}2-5-7[16:3],1,
{16}2,4,3,5,{8}4h[8:1],6h[8:1],{16}2,8,1,7,{8}8h[8:1],6h[8:1],
2>4-1-5-8<6[2:1],5,6,7,{2}7h[4:1],
{16}7,5,6,4,{8}5h[8:1],3h[8:1],{16}7,1,8,2,{8}1h[8:1],3h[8:1],
6>4-7-3-8>1[2:1],3,2,1,{2}1w5[8:1],
{1}Ch[1:1],
{32}A8,E8,E7,A6,A2,E3,E4,A4,D8,E1,E2,D3,D7,E6,E5,D4,A8,A7,A6,A5,A4,A3,A2,A1,{4}Cf,
{8}5/7-5-3[8:1],1/3,7/4,{16}2,2,{8}3/1-3-5[8:1],8/2,1/7,{16}6,6,
{8}4-7[16:1],3,8-3[16:1],1,2-5[16:1],4,6-1[16:1],8,
{4}3pp4>1[4:1],1<6[8:1],{8},,8,8,
{4}7<4q8[4:1],8q4[8:1]*>3[8:1],,C,
{8}4/6-8-2[8:1],1/3,6/5,{16}3,3,{8}2/4-2-8[8:1],5/3,6/4,{16}7,7,
{8}1-4[16:1],1,5-8[16:1],5,3-6[16:1],3,7-2[16:1],7,
{4}5>8[4:1],8-6-4[16:3],{8},,8,8,
7-5[16:1],{16}4,4,{8}7-4[16:1],{16}8,8,{8}7-3[16:1],{16}1,1,7,,,2,
8/2h[8:1],,,7,1/7<4[16:1],,,3,3h[8:1],,,8,2/8-5[16:1],,,3,
{8}3h[4:1],,,7,6/4z8[8:1],3/5,{4}2,
{16}1h[8:1],,,6,5/6v1[16:1],,,2,2h[8:1],,,8,8p4[16:1],,,3,
{4}3-1-7[8:1],{8}5,4,{16}8z4[8:1],,,,,,,2,
8/2v4[16:1],,,6,6h[8:1],,,8,7/8q4[16:1],,,5,5h[8:1],,,2,
{2}2pp5[16:3]*<7[8:1],{4}8z4[8:1],2,
{16}6/1-5[16:1],,,8,1/8-4[16:1],,,1,8/2-6[16:1],,,8,{4}2/8h[4:1],
{8}Cf,,,A7/E7/E3/A2/B7f/B2f,{24},,,,,,,,{12}B7/D7/A7f,A4/A3/E4f,
{8}E1/E5/Cf,,,B8/B4/B7f/B3f,{24},,{12}A8/E8/D8f,A4/E4/D4f,E7/E3/Cf,,,{1}1-7-5-3-1<4-1-6-3[4:5],
{4}8h[4:3],{8},,,,1,2,
3h[1:1],{16}E8,B7,,B6,{32},,A6,E6,{8}B5,{16}B4,E4,,E2,,E1,
{8}B8,{16}E7,A4,,A6,{32},,E3,B3,{8}B4,{16}E8,D2,,C,,,{4}6h[8:1]/5h[8:1],
6h[8:1]/5h[8:1],7h[8:1]/4h[8:1],7h[8:1]/4h[8:1],
8h[8:1]/3h[8:1],8h[8:1]/3h[8:1],1h[8:1]/2h[8:1],(174)8/1s5b[8:1],
{16},,,,7h[8:1]/8h[8:1],,,6h[8:1]/1h[8:1],,,{8}5/2,{16}1h[8:1]/2h[8:1],,,8h[8:1]/3h[8:1],
,,{8}7/4,{16}6h[8:1]/5h[8:1],,,7h[8:1]/4h[8:1],,,{8}8/3,{16}8h[8:1]/1h[8:1],,,7h[8:1]/2h[8:1],
,,{8}6/3,{16}1b,4,3,4,8b,5,4,5,1b,6,5,6,
2b,4,3,5,{32}1b,2,3,4,5,6,7,8,(87){4}6/1s5[16:1],{8}A1f,7bh[8:1],
{16}B1/E1/D2/A1,6b/4b,{32},5,{16}3,4-8[16:1]/2-6[16:1],5/1,,,{8}4<7[16:1]/2<7[16:1],{32}3,3,{16}3,{8}4/2,5bh[32:3]/3bh[32:3],
{16}6/4,{32}5b/7b,7/5,,4b/2b,{16}4/2,{8}8h[16:1]/1h[16:1],{32}1,6,5,6,8,5,4,5,{16}1s5[16:1],2h[32:1]/8h[32:1],{8}7h[16:1]/3h[16:1],1b,
{16}A7/B7/E7,3b/5b,{32},6h[32:1]/4h[32:1],{96},,,,,,{24}3/7h,7/3h,3/7h,{192}B4,,,B5,,,{64}B6,B7,B8,B1,B2,B3,{32}B4`6h[16:1],,,6h[16:1],,,{16}6h[16:1],7,8z4[16:1],{8}1b/7b,
{16}A1/D2/E2,8b,{32},3h[16:1],,,{16}6h[32:1]/4h[32:1],5/3,{32}2,4,2,3,2,1,2,8,2,7,2,6,{64}2,3,4,5,6,7,8,1,{8}6b/2bh[8:1],
{16}A8/D8/B8,6b/4b,{32},5,{16}3,4-7[16:1]/2-7[16:1],5/1,,,{8}2<7[16:1]/4<7[16:1],{32}3,3,{16}3,{8}4/2,5bh[32:3]/3bh[32:3],
{16}6/4,{32}7b/5b,7/5,,4b/2b,{16}4/2,{8}8h[16:1]/1h[16:1],{32}1,6,5,6,8,5,4,5,{8}3h[8:1],{64}8,7,6,5,4,3,2,1,{8}8b-6-4z8[8:3],
{16},2,{8}2>5p1-6[8:3],,,,7b,,5b-7-4-8-3[8:3],
{16},2,{8}2-4<6-8[4:1],,,,Cf,,6h[8:3],
{64},,,,,,,,A1,B1,{32}E2,,,,,{16}4,{8}3h[4:1],{64},,,,,,,,A7,B7,{32}E7,,,,,{16}5,{8}5h[8:1],
{16},2,{64}2h[8:1],A6,B6,E6,,,,,,,,,{16}7,{8}7h[8:1],{16},4,{64}4h[8:1],A7,D8,E8,,,,,,,,,{16}8,{8}8h[8:7],
{64},,,,,,,,A5,B5,{32}E5,,,,,,,,,,,{8}3,{64}B2,E2,{32}A2,,,,,,,{8}6h[8:1],
{16}4,4,3h[8:1],5,{4}5-7-1[8:1],{8}5,2b-5[16:1]*-7[16:1],,2,
{16}4,{32}6,5,{16}6-1[16:1],{32}3,4,{16}3,7/4,{8}6/5,{16}2,{32}3,4,{16}3-8[16:1],{32}6,5,{16}6-2[16:1],5/2,{8}4/3-5[16:1],
4/6-1[16:1],8/3-7[16:1],2/6-4[16:1],3/8qq5[8:1]*pp3[8:1],6/2,8,{32},,,,4b,6,5,6,
3b,5,4,5,2b,4,3,4,1b,6,5,7,7b,5,6,5,8b,4,5,4,1b,3,4,3,8b,1,7,2,{64}6,5,{32}4,{64}4,5,{32}6,
{64}7,6,{32}5,{64}3,4,{32}5,{64}8,7,{32}6,{64}2,3,{32}4,{64}1,8,{32}7,{64}1,2,{32}3,{16}5bxh[4:1],{64}E5,B4,B3,E3,{16}A2,{32}D8,B7,D7,B6,{16}A6,(174){4}8z4b[0.3448##0.1724],
(87){8}A8f,{16}2,{32}2,2,{8}3h[16:1]/2h[16:1],{16}3,{32}3,3,3h/2h,3h/2h[32:3],,,3,3h[32:1],,,2,2h[32:1],,2,{64}7,6,5,4,3,2,1,8,
{8}7h[16:1]/6h[16:1],{16}7,{32}7h,7h,{8}7h[16:1]/6h[16:1],{16}6,{32}6h,6h,7,7h[32:1],,,{16}5,{64}6,4/7,3/8,2,(174){8}1bs5b[8:1],8/2,
{4}1,6bh[8:1]/4bh[8:1],{24}7,5,7,5,7,5,{32}6v1b[8:1],7,8,4,3,2,,,{4}6,
{32}3v8b[8:1],2,1,5,6,7,,,{4}3,{8}7v4b[8:1],6/1,
{4}7/2,{16}1,2,3,4,{24}5,6,7,8,1,2,{32}3,4,5,6,7,8,1,2,
3,4,5,6,7,8,1,2,8/3,7,6,5,4,3,2,1,8,7,6,5,4,3,2,1,8/4,5,6,7,8,1,2,3,
{4}4z8b[8:1],A4f,(87){16}7,{32}7,7,{16}7h[32:1]/6h[32:1],6,6h,{32}6,6h[16:1],,7,{16}7,
{32}7/6,6h,,7,7,7h,,7h,{64}2,3,4,5,6,7,8,1,{8}3h[16:1]/2h[16:1],{16}2h,{32}2h,2h,{16}3h[32:1]/2h[32:1],3,3,{32}3,3h[16:1],,2,{16}2h,
4,{64}3,5/2,6/1,7,(174){8}8bz4b[8:1],7/1,8,,5bh[8:1]/3bh[8:1],{16},,4-8b[16:1],4,
4,4,{8}4,{16},,7-3b[16:1],7,7,7,{8}7,{24},,,2,1,2,
{8}1,7bh[8:1]/3bh[8:1],{32},,,,4,5,6,7,8,1,2,3,{8}4/8bV64b[8:3],,,,2qq3b[16:7],
,,,4<1b[8:3],,,,4bh[2:1],
,,,Cf,{1},,{4},,,{8},7b/5b,
{16},3b/1b,,,5b/4b,
5b/4b,{8}6b/3b,{32},,,,,,,,1b,8,2/7,6/3,(87){8}4/5b<6-4-7-3-8>2[4:7],,,,,,,,,,,,,,,,4-6-8-2-4[8:7],
{1},{4},{16},,{24}6,
,7h[24:1]/4h[24:1],,6h[24:1]/3h[24:1],,{8}5/2,{16},,2,4/2,3,5,{8}4h[8:1],
6h[8:1],{16}2,8/2,1,7,{8}8h[8:1],6h[8:1],1>3[8:1],3<5[8:1],5<7[8:1],
8,8w4[8:1],{16},,,,,,7,5/7,6,4,{8}5h[8:1],
3h[8:1],{16}7,1/7,8,2,{8}1h[8:1],3h[8:1],8-6[8:1],6-4[8:1],4-2[8:1],
1,1s5[8:1],,,,Ch[1:1],{4},,,{16},,{32}A8,
E1,E2,A2,E8,B8,B2,E3,A7,B7,B3,A3,
E7,B6,B4,E4,A8,A7,A6,A5,A4,A3,A2,A1,{8}C/B6/B5/E5/B4/B3/E1/D1,,6-8[11.0345##0.1724],{32},,,,,,,,,,E4,
E3,{8}A2h[2:1],,,,4-6[11.0345##0.1724],{48},,,,,,,,,,,,,,,E1,
E2,E3,{8}E4h[2:1],,,,7-5[11.0345##0.1724],{32},,,,,,,,,,D4,
A3,D3,A2h[32:15],,,,,,,,,,,,,,,{8}8h[4:3],{32},,C,B2,{8}A2,
{48},,,,B1,E3,{8}A3,{64},,,,,,,,B4,B3,,,,,,,,,,,,,,,{8}6,{32},,,,,,,,D2,
A2,D3,A3,{8}D4,,,,4,{32},,,,,,,,E8,
E1,E2,E3,,,,,,,,,,,,,,,,,{8}7h[2:1],{48},,,,,,,,,,,,,,,A1,
B2,B3,{8}A4,,7,6/4,2h[8:1],{16}5,5,{8}4h[8:1],
{16}6,4,{8}7h[8:1],{16}5,7,{8}1h[8:1],{16}6,2,{8}8/2h[8:1],{16},7,{8}1/7<4[16:1],
{16},3,{8}3h[8:1],{16},8,{8}2/8-5[16:1],{16},3,{8}3h[4:1],,C,
7,6/4z8[8:1],3/5,2,,1h[8:1],{16},6,{8}5/6v1[16:1],
{16},2,{8}2h[8:1],{16},8,{8}8p4[16:1],{16},3,{8}3-1-7[8:1],,5,
4,8z4[8:1],{16},,,,,2,{8}8/2v4[16:1],{16},6,{8}6h[8:1],
{16},7,{8}7/8q4[16:1],{16},5,{8}5h[8:1],{16},2,{8}2pp5[16:3]*<7[8:1],,,,8z4[8:1],
,2,,6/1-5[16:1],{16}2,8,{8}1/7-4[16:1],
{16}8,1,{8}7/2-6[16:1],{16}3,8,{8}2/8h[4:1],,Cf,{24},,,,,,B7/B1/B4/Cf,
,,,,,,,,,,E7f/A8/E8/E6/A5,,E3f/A1/E2/E4/A4,,{8}Cf/E1/E5,{24},,,,,,Cf/B8/B6/B2/B4,
,,,,A7f/E8/E7/D8,,A4/E4f/D4/A3,,{8}1s5[16:1],,1,{16}6,{32}6,5,{16}6,{32}3,4,
{16}3,{32}6,5,{16}7,{32}3,4,{16}2,{32}6,5,{16}8,{32}3,4,{16}1,{32}6,6,{16}5,{32}3,3,{16}4,{32}7,7,{16}5,{32}2,2,
{16}4,{32}8,8,{16}5,{32}1,1,{16}4,{32}7,7,{16}6,{32}2,2,{16}3,{32}7,8,{16}7,{32}2,1,{16}2,{32}7,8,{16}6,{32}2,1,
{16}3,{32}7,8,{16}5,{32}2,1,{16}4,{32}6,8,{16}5,{32}3,1,{16}4,{32}6,5,{16}8,{32}8,6,{16}8,{32}8,5,{16}8,{32}8,4,
{16}8,8,{32}4,6,3,7,2,8,1,1,1,1,1,1,1,1,1,1,{16}8b/2b,{32}6,5,{16}6,7,5/2,{32}3,4,
{16}2,1,6/8,{32}7,5,{16}6,6,{32}1,2,3,4,1,2,3,4,{16}5/2,{32}1,7,{16}8,6,5/4,{32}3,4,
{16}2,1,8/6,{32}7,5,{16}7,4,(174){8}4/8z4b[8:1],,,,1bxh[8:1]/2bxh[8:1],
{16},3bxh[8:1]/8bxh[8:1],,,{8}4/7,8bxh[8:1]/7bxh[8:1],{16},6bxh[8:1]/1bxh[8:1],,,{8}2/5,4bxh[8:1]/3bxh[8:1],
{16},5bxh[8:1]/2bxh[8:1],,,{8}1/6,8bxh[8:1]/1bxh[8:1],{16},7bxh[8:1]/2bxh[8:1],,,{8}3/6,{16}1b,4,
3,4,8b,5,4,5,1b,6,5,6,2b,4,3,3,{32}8b,7,6b,5,
4b,3,2b,1,(87){8}8bz4[16:1],{4}1s5b[0.3448##0.1724],(174){32}1/2,8/3,7/4,6/5,,,,,8,7,6,5,4,3,2,1,
8,1/7,2/6,3/5,{8}4,{16}2,4,3,5,{32}4,6,{16}4,7,5,{32}8,6,{16}8,5,1,
2,8,3,7,4,6,{8}5,{32}7/8,6/1,5/2,3/4,,,,,1,2,3,4,5,6,7,8,
1,8/2,7/3,6/4,{8}5,{16}7,5,6,4,{32}7,5,{16}7,4,6,{32}5,6,{16}5,7,4,
6,5,6,4,7,5,{8}6,{32}1/2,8/3,7/4,6/5,,,,,8,7,6,5,4,3,2,1,
8,1/7,2/6,3/5,{8}4,{16}2,4,3,5,{32}4,6,{16}4,7,5,{32}8,6,{16}8,5,1,
2,8,3,7,4,6,5,7,{8}8/4,8/4,{16}2,5,3,6,
{8}6b/4h[8:1],8,{16}2,5,3,6,{4}6b/4h[8:1],{16}7b-5[16:1],,,1b-6b[32:3],
,,{8}4bw8b[8:1],,,{4}A7/A1/A8f,{32}1,2,3,4,5,6,7,8,
1,8/2,7/3,6/4,{8}5,{16}7,5,6,4,{32}5,3,{16}5,2,4,{32}1,3,{16}1,4,8,
7,1,6,2,5,3,{8}4,{32}2h/1h,3h/8h,4h/7h,5h/6h,,,,,8,7,6,5,4,3,2,1,
8,1/7,2/6,3/5,{8}4,{16}2,4,3,5,{8}4b/6b,{16}7b,8b,{8}6b/1b,{16}2b,1b,
8bh[8:1]/3bh[8:1],,,7bh[8:1]/4bh[8:1],,,{8}6b/5b,{16}3,4,2,4,3,4,1,4,
3,5,8,5,4,5,7,5,4,6,3,7,2,8,1,1,
3,5,2,6,1,7,8,8,{4}8h[4:1],{16}1,2,3,4,
{8}5,6/4,{16}8,7,6,5,{8}4b/3b,7b/5b,4b/2b,8b/1b,
{16}1,1,1,1,1,1,{32}1,8,7/2,6/3,{4}5/4,{8}8/1,{16}6,6,
{8}5,{16}3,3,{8}4,{16}7,7,{8}6,{16}2,2,{8}3,{16}8,8,
{8}5,{16}1,1,{4}4-1[8:1],6/4,{8}5,{16}2h,2h,
{8}4,{16}7h,7h,{8}5,3/4,{16}3/4,5/2,,7/8,{32}7,8,7,8,{8}7,
1s5[8:1],8/2,,,{4}Ch[4:1],{64}D4,E4,{32}A3,{96},,,,,,{48}A8,E8,E7,A6,,,{4}A1h[16:1]/E2h[8:1]/D2h[16:3],
B3/D7h[16:1]/E6h[16:3]/A6h[4:1],{8}B4,{16}B2,B1,{4}8b-5-7-4b[4:1],
{2}3-8-4[16:3],{4}C,{8}A7h[4:1]/E7h[16:1]/D7h[8:1],{64}E2,D2,{32}A2,,,E6,
E5,{16}E4,{64},,,,B2,E3,,,{4}8bh[8:1],{16}4/3,5b/2b,,6/5,{8}7b/4b,{16}4/3,5b/1b,
,6/5,{8}8b/4b,,1h[16:1],2h[16:1]/8h[16:1],7h[16:1]/3h[16:1],4,{16}6,6,
{8}5,{16}3,3,{8}4,{16}7,7,{8}5,{16}2,2,{8}4,{16}8,8,
{8}5,{16}1,1,{8}4v1[8:1],6/3,{4}5/4,{8}6,{16}2h,2h,
{8}4,{16}7h,7h,{8}5,6/4,{16}7/5,7/5,,4/2,{8}4/2,8h[4:1],
{32}1b,2,3,4,5,6,7,8,{4}1-5[16:1],7b/1b,{8}B2/E2/A2,6h[8:1]/4h[8:1],
{16},3h[8:1]/5h[8:1],,,{8}4/2,4b/2b-5[32:3],,,{4}7,
{16}8,1,{8}8,{32}7,6,5,4,,,,,{4}8b/2b,{8}A7/E7/B7,4h[8:1]/2h[8:1],
{16},5h[8:1]/3h[8:1],,,6h[8:1]/4h[8:1],,,7h[8:1]/5h[8:1],,,{8}8h[8:1]/1h[8:1],{16},7h[8:1]/2h[8:1],,,{2}6b-4b[16:1]/3b-5b[16:1],
{16}8/2,,,7/1,,6/5,{8}6h[8:3]/5h[8:3],
{16},,,,,,,,5/3,,,7/1,,4/2,{8}4/2,
{16}5/3,5h[16:5]/3h[16:5],,,,,,,7/4,,,6/5,,8/1,8/1,8h[16:5]/1h[16:5],
,,,,,,,,4/3,,,6/2,,7/1,{8}7/1,
{16}6/5,6h[4:1]/5h[4:1],,,,,,,8/2,,,5/3,,6/4,{8}4/6,
{2}7h[4:1]/5h[4:1],{16}1/7,,,4/6,,3/5,{8}5/3,
{16}4/2,4h[16:3]/2h[16:3],,,,,,,8/2,,,7/5,,4,4,6,
3/6,,,8/2,,5,5,4,{32}6,7,8,1,2,3,4,5,6,7,8,1,2,3,4,5,
{4}6/C,3,4/3h[4:1],{16}5,4,6,5,
{8}7,7h[16:1]/6h[16:1],5h[16:1]/8h[16:1],7h[16:1]/4h[16:1],3h[16:1]/6h[16:1],5h[16:1]/2h[16:1],4h[16:1]/1h[16:1],6h[16:1]/5h[16:1],
{4}B2/7v4[8:1],7/1-5[8:1],6bh[8:1],{16}6,4,6,4,
6h,4h,6h,4h,6h,4h,7h,3h,E1,E2,E8,E3,E7,E4,E6,E5,
{4}1b,4,5/6h[4:1],{16}4,5,3,4,
{8}2,2h[16:1]/3h[16:1],4h[16:1]/1h[16:1],2h[16:1]/5h[16:1],6h[16:1]/3h[16:1],4h[16:1]/7h[16:1],5h[16:1]/6h[16:1],3h[16:1]/4h[16:1],
{4}B6/2v4[8:1],2/8-5[8:1],3bh[8:1],{16}3,4,3,5,
3h,6h,3h,7h,3h,8h,3h,1h,3h,4,8h,7,4h,5,7h,6,
{2}1bs5[8:1],{8}6h[8:3],{16},,,,5,6,
{8}8b>4v1[4:3],,,,,5,{4}5,
{2}7-5-8[8:3],{8}3h[8:3],{16},,,,4,3,
{8}1b-5-8-6[4:3],,,,,4,{4}4,
{2}1s5b[8:1],{8}6,{16}7,5,7,5,8,4,
8,4,1,3,1,3,4,2,4,2,5,1,5,1,6,8,
6-2[8:1],8,7,5,{4}6,{16}1b,3,4,3,8b,4,5,4,
7b,5,6,5,8b,4,5,4,1b,1b,1b,1b,{32}1b,2,3,4,5,6,7,8,
1w5[8:1]*w5b[8:1],2,3,4,5,6,7,8,,,,,,,,,{8}7/3,{16}6,4,5,3,5,4,
6,2,5,3,7-1[16:1],4,6,5,{8}7,{16}2,4,3,5,1,6,
4-2[16:1],5,2,7,{8}4,6,1<6[8:1],{16}5,5,{8}1-3<4[8:1],{16}5,5,
{8}1<8<7<6[8:1],{16}5,5,{8}1-5[8:1],{16}4,4,{4}1-6[8:1]*>4[8:1],1-7[16:1],
1-5[8:1]*-4[8:1],1,{8}7,{16}7,5,6,4,5,2,
6,3,5,4,7,1,6,2,{4}5-8[8:1],1v6[8:1]/5v2[8:1],
1<6[8:1]*>4[8:1],1,{8}5,{16}3,4,2,6,3,5,
1,7,4,6,5,8,1,4,3/4,,,6,{8}6/5,7/4,
8/3,7/1,6/2,5/3,6b/4b,{16}3,5,4,6,4,5,
3,7,4,6,2-8[16:1],5,3,4,{8}2,{16}7,5,6,4,8,3,
5-7[16:1],4,7,2,{8}5,3,8>3[8:1],{16}4,4,{8}8-6>5[8:1],{16}4,4,
{8}8>1>2>3[8:1],{16}4,4,{8}8-4[8:1],{16}5,5,{4}8-6[16:1]*-3[8:1],8-5[8:1],
8-4[8:1]*>3[8:1],8,{8}6,{16}7,5,6,4,8,2,
5,3,7,1,6,2,5,3,6,5,6,4,7,6,7,5,
{4}8-4[8:1],8/2,1h[4:1],{32}2,3,4,5,6,7,8,1,
{4}2b/3,4,{16}6h[8:1]/5h[8:1],,,7bh[8:1]/4bh[8:1],,,{8}1bh[8:1]/3bh[8:1],
{16},8bh[8:1]/4bh[8:1],,,{8}7bh[16:1]/3bh[16:1],2b/6b,{4}1-5[16:1],A1f,
{16}6,4,7,3,1,8,7,6,3,4,2,5,1,8,7,6,
8,7,6,5,3,3,4,4,{32}2-5[8:1]*-4[8:1],1,8,7,,,,,{4}2-8[8:1]*-6[8:1],
2-4-6[8:1],7/2,{32}8v5[8:1]*v3[8:1],1,2,3,,,,,{4}8-6[8:1],
8>3[8:1],5/8,{8}4,{16}1,1,{4}6h[8:1],
{8}4/2,{16}1,1,{4}6h[8:1],{8}4/2,{16}8,8,{4}6-3[16:1],
6/1-5[16:1],7/1,{8}5,{16}8,8,{4}3h[8:1],
{8}5/7,{16}8,8,{4}3h[8:1],{8}7/5,{16}1,1,{4}3-6b[16:1],
3/8-4[16:1],8/2,1-5[16:1],A1f,
{16}3,5,2,6,8,1,2,3,6,5,7,4,8,1,2,3,
1,2,3,4,6,6,5,5,{32}7-4[8:1]*-5[8:1],8,1,2,,,,,{4}7-1[8:1]*-3[8:1],
7-5-3[8:1],2/7,{32}1v4[8:1]*v6[8:1],8,7,6,,,,,{4}1-3[8:1],
1<6[8:1],4/1,{16}5b-1[16:1],5b,5b,5b,,,,,2bz6[8:1],
2b,2b,2b,,,,,7b-3[16:1],7b,7b,7b,,,,,4,
5,4,6,5,6,3,7,{32}1b,2,3,4,{16}8x,1,{32}7b,6,5,4,{16}2x,8,
{32}3b,4,5,6,{16}7x,1,{32}6b,5,4,3,{16}1,1,{32}A7/D7/E7,E8,E1,E2,E3,E4,E5,E6,B7,B8,B1,B2,B3,B4,B5,B6,
{2}Cf,{48}A7f/D7/D1/A8f,E7/E1,B6/B1,B5/B2,E5/E3,A4/A3,,,,,,,,,,,,,,,,,,,{16}E1/A1/E2,
A6/E7/E6,E3/B3/A3,A5/E5/B5,A2/B2,D8/E8,B4/E4,E6/B6,E2,B7,B3,B5,{4}E1f/A8/A1,
{2}Cf,{48}A1f/A2f/D1/D3,E1/E3,B8/B3,B7/B4,E7/E5,A6/A5,,,,,,,{4}A7h[8:1]/E8h[16:3],
{32}E3,B3,B4,E5,E7,E6,{16}A5,{32}A3,E3,{16}E2,{8}A8h[8:1]/E8h[16:1],E2h[16:1]/A2h[16:0],{32}A7,E7,E6,A5,D1,B1,B3,D4,E1,B8,B7,E7,
{2}E3/B2f/A2,{48}D7/D1/A7f/A8f,E7/E1,B6/B1,B5/B2,E5/E3,A4/A3,,,,,,,,,,,,,,,,,,,{16}E1/A1/E2,
A6/E7/E6,E3/B3/A3,A5/E5/B5,A2/B2,D8/E8,B4/E4,E6/B6,E2,B7,B3,B5,{4}E1f/A8/A1,
{48}A7f/A2f,E8/E2,E7/E3,E6/E4,{12}E5,{48},,,,,,,,,,,,,,,,A1f/A2f/D1/D3,E1/E3,B8/B3,B7/B4,E7/E5,A6/A5,,,,{16}A7h[16:3]/E8h[8:1]/D8h[4:1],{48},,,,,,,,,,,,E2/A2/E3,
B3,B4,E5,{96},,,,,,,,,,,,,{32}B7,,,,,,,{16}E5h[16:1]/B5h[16:1]/B4h[16:1],,,{8}D8/E8f/A8,{16},E2f/A1/D2,,,{2}Cf/B5/B4,
{48}A2f/D3/D1/A1f,E3/E1,B3/B8,B4/B7,E5/E7,A5/A6,,,,,,,,,,,,,,,,,,,{16}E1/A8/E8,
A3/E3/E4,E7/B6/A6,A4/E5/B4,A7/B7,D2/E2,B5/E6,E4/B3,E8,B2,B6,B4,{4}E1f/A1/A8,
{2}Cf,{48}A8f/A7f/D1/D7,E1/E7,B1/B6,B2/B5,E3/E5,A3/A4,,,,,,,{4}A2h[8:1]/E2h[16:3],
{32}E7,B6,B5,E5,E3,E4,{16}A4,{32}A6,E7,{16}E8,{8}A1h[8:1]/E2h[16:1],E8h[16:1]/A7h[16:0],{32}A2,E3,E4,A4,D1,B8,B6,D6,E1,B1,B2,E3,
{2}E7/B7f/A7,1>7[1:1],
{1}8h[4:3],
{16}1/2,8/3,,6/5,{8}7/4,{16}3,4,{2}5bh[2:1]/2bh[2:1],
{4},7bh[2:1]/6bh[2:1],{12},,,,,,{6}4,
3b/1b,8b/7b,5bh[2:1]/4bh[2:1],{12},,,,,,,{4}6bh[4:1]/3bh[4:1],
{12},,{6}1b/7b,6b/5b,
{2}Cf/2b-7[16:1],{16}8/2,,,7/1,,6/5,{8}6h[8:3]/5h[8:3],
{16},,,,,,,,5/3,,,7/1,,4/2,{8}4/2,
{16}5/3,5h[16:5]/3h[16:5],,,,,,,7/4,,,6/5,,8/1,8/1,8h[16:5]/1h[16:5],
,,,,,,,,4/3,,,6/2,,7/1,{8}7/1,
{16}6/5,6h[4:1]/5h[4:1],,,,,,,8/2,,,5/3,,6/4,{8}4/6,
{2}7h[4:1]/5h[4:1],{16}1/7,,,4/6,,3/5,{8}5/3,
{16}4/2,4h[16:3]/2h[16:3],,,,,,,8/2,,,7/5,,4,4,6,
3/6,,,8/2,,5,5,4,{32}6,7,8,1,2,3,4,5,6,7,8,1,2,3,4,5,
6/1,2,3,4,5,6,7,8,1,2,3,4,5,6,7,8,{48}1/7,6,5,4,3,2,1,8,7,6,5,4,3,2,1,8,7,6,5,4,3,2,1,8,
7/1,2,3,4,5,6,7,8,1,2,3,4,{4}5h[4:1],{32}8b<3-6-8[4:13],7/1,6/2,5/3,{8}4>7-2-4b[8:25],{1},,,{4},,,{2}5h[1:1],
{4}2,,,6,
{2}8/3h[2:1],{4}5,{8}6,6,
2,5,{4}5h[2:1],,4,
{2}D1/E1/C/B6/B5/E5/B4/B3,(87){8}8h[16:3],{16}2,2h[16:3],,4,{8}4h[8:1],
6-8[32:3],6-3[32:3],,,1h[16:3],{16}7,7h[16:3],,5,{8}5h[8:1],
3-5[32:3],3-8[32:3],,,7h[16:3],{16}5,5h[16:3],,3,{8}3h[8:1],
1-7[32:3],1-4[32:3],,,6h[16:3],{16}4,4h[16:3],,2,{8}2h[8:1],
{16}1h[16:3],,,7h[16:3],,,{8}5h[8:1],{2}Ch[8:31],
E
&lv_7=1
&des_7=
&inote_7=
(87)
E
