&title=文化になっていく
&artist=カンザキイオリ
&first=0.02
&des=Disco Elysium
&des_5=
&lv_5=13
&inote_5=(120){4},,,,3h[4:1],
E5,6h[4:1],E5,
4h[4:1],{8}E5,5,{4}5h[16:3],{8}E5,3,
{4}2h[4:1],{8}C,6,{4}6h[4:1],{8}C,4,
{4}4h[4:1],{8}C,5,{16}5h[16:3],,,4,{8}5,6,
{4}8-5[8:1],1,3/4-6[8:1],1,
{8}7,{16}6,5,{4}7-3[8:1],3-5[8:1],2,
{8}1-4[8:1],1,{4}8,{16}5-3[8:1],4,6,4,,,,,{8}2,
{16}3,4,{4}2-6[8:1],6-4[8:1],7pp6[8:3],
3,{8}E5,C,{16}E1/5pp6[16:3],,,4,{8}5,3,
{16}1h[16:3],,,5,{8}1s5[16:3],2,5v8[8:1],7,,,{4}8-5[8:1],
1,3/4-6[8:1],1,
{8}7,{16}6,5,{4}7-3[8:1],{2}4qq5[4:1],
{8}6b,7,6/5,{16}7,8,,5,{8}4v5[8:1],{4}6xh[4:1],
{8},7,6/5,{16}3,4,,6,{8}5v8[8:1],{4}3xh[4:1],
{8},2,3/4,{16}2,1,,4,{8}5v4[8:1],{4}3xh[4:1],
{8},2,3/4,{16}6,5,,3,{8}4<7[8:1],{16}5x,3x,4x,2x,
{4}1bx-3[8:1],8,4-2[8:1],6V85[4:1],
{8}1,{16}3,3,,4,2,2,{2}3$/3?-5[8:1]/3?-6[8:1],
{4}8-5[8:1],5,{8}4-7[8:1],2,4,{16}1,1,
{8}8,{16}6,5,{8}7,1/8,2-5[8:1]/6-3[8:1],6/2,,,{4}2-6[8:1],
6,{16}8z4[4:1],1,7,1,,,,,{4}1-5[8:1],
5,{8}6h[8:1],{16}5,7,,8,8,8,
{4}1>4[8:1],4,5/8<5[8:1],1,
{8}3,{16}2,4,{8}3,{16}8,1,8qq1[4:1],,,4,{8}4,3,
{4}2h[4:1],E4,5h[4:1],{8}1,2,
{4}3h[4:1],E5,6h[4:1],{8}2,3,
{4}4h[4:1],E6,7h[4:1],{8}3,4,
{4}5h[4:1],E7,8h[4:1],{8}6,5/4,
3/1,{16}2,4,3<6[8:1],4,{8}2,{16}7h[8:1],,,1,{8}8,4/2,
3/5,{16}6,5,7p2[8:1],5,{8}6,{16}3h[8:1],,,3,{8}1,8/5,
6/3,{16}2,2,4,3,8,5,{8}6h[8:1],{16}2,1,4,5,8,7,
{8}5/4,8b/2b,4/3,7b/1b,6/5,8b/2b,{16}3x,3x,4x,4x,
{4}5-1[8:1]/2-4[8:1],5/2,{8}4-8[8:1],7-5[8:1],{4}4,
{16}1,8,2,4,{8}3h[16:3],{16}5,5,{8}3xv4[8:1],3x,{4}6x,
5-1[8:1]*-7[8:1],{16}5,,,8,{8}1-3[8:1],7-3[8:1],{4}1,
{16}2,2,4,3,7,7,5,6,{8}1xv2[8:1]*v8[8:1],4x,{4}1bx,
5<8[8:1]/1>4[8:1],5/1,{8}1<6[8:1],5>2[8:1],{4}1,
{16}8,1,7,5,6,6,3,5,{8}4xv6[8:1],4x,{4}6x,
7-3[8:1]/3-7[8:1],{16}7/3,,,1,{8}1-5[8:1],5-1[8:1],{4}1,
{8}6h[8:1],{16}5,7,3,4,2,4,{8}5V71[8:1]/1V35[8:1],7/3,{4}1bs5[16:3],
2h[16:3],{8}2,4/3,8h[8:1],{16}5,7,{8}1h[8:1],{16}4,2,
{8}7h[16:3],{16}5,5,{8}6-1[8:1],{16}2,2,{8}6V48[16:3],3,6,2,
1h[8:1],{24}5x,1x,5x,1x,5x,1x,5x,1x,5x,1x,4x,1x,4x,1x,4x,1x,4x,1x,4x,1x,4x,
1x,3x,1x,3x,1x,3x,1x,3x,1x,3x,1x,3x,1x,3x,1x,3x,1x,3x,1x,2x,3x,4x/5x,6x,7x,
{8}8bx-6[8:1],{16}7,1,{8}8x,5,4x-2[8:1],{16}3,5,{8}4x,1,
8x-5[8:1],{16}6,1,{8}8x,4,4x-1[8:1],{16}2,5,{8}4x,8,
7x-3[8:1],{16}6,4,{8}7x,2,1x-5[8:1],{16}2,4,{8}1x,6,
{24}8bx,1x,8x,1bx,8x,1x,8bx,1x,8x,1bx,8x,1x,8bx,1x,8x,1bx,8x,1x,{8}8bxh[8:1],4xh[8:1],
6xh[8:1],2xh[8:1],C,6,{4}6h[4:1],{8}C,4,
{4}4h[4:1],{8}C,5,{16}5h[16:3],,,4,{8}5,6,
{4}7h[4:1],C,3h[4:1],C,
5h[4:1],C,{16}4h[16:3],,,5,{8}4,6-3[8:1],
E
