&title=ルカルカ★ナイトフィーバー
&artist=samfree
&first=0
&des=MinoUwU
&lv_5=13+
&des_5=MinoUwU
&inote_5=
(160){4},{16},,,,,,,,,,,,,8bx/1bx,
,,,7bx/6bx,,5bx/4bx,,3bx/2bx,,8bxz4[16:1]/1bxs5[16:1],,,,8b/1b/Cf,
,,,2/8,,4/6,,2/7,,3/6,{8}3h[16:3]/6h[16:3],{16},,,1,
8,1,8,2,2,6,6,3,3,7,7,1,1,5,5,4,
4,8,,7b/1b,,5/3,,7/2,,6/3,{8}6h[16:3]/3h[16:3],{16},,,4,
5,4,5,8/1,,8/1,{32},,1/8,2,3,4,5,6,7,8,{16}1b-5[32:3],,,,1b,
,,,7b/4b,,5/2,,6/3,,8/1,{8}8h[16:3]/1h[16:3],{16},,,3,
6,3,6,1,7,3,5,2,8,4,6,2,2,4,4,5,
5,7,,2b/5b,,4/7,,3/6,,1/8,{8}1h[16:3]/8h[16:3],{16},,,2,
7,2,7,8b/1b,,8b/1b,{32},,8b/1b,2,3b,4,5b,6,7b,8,{16}1b-5[32:3]*w5[32:3],,,,1b,
,,,7/2,,2,,2>5[32:3],,,,8,,8-4[32:3],,,,8,
,1,,2,,3<6[32:3],,,,3,,,,,,,,2/7,
,7,,7<4[32:3],,,,1,,1-5[32:3],,,,1,
,8,,7,,6>3[32:3],,,,6,,,,,,,,7/2,
,2,,2-5[32:3],,,,8,,8-4[32:3],,,,8,
,,,1/2,,2-5[32:3]/1-6[32:3],,,,2/1,,,,7<4[2:1],
,7,,7,,,,4>1[4:1],,,,1<6[4:1],,,,4,
,4,,,,5,,5h[16:3],{32},,8,1,2,3,{16}4b-8[32:3],,,,4b`Cf,
,,,7-4[32:3],,2,,7,,1-5[32:3],,8,,1,,6,
,6,,7-3[32:3],,8,,7/1-5[32:3],,,,1/8,,,,,,,,2-5[32:3],
,7,,2,,8-4[32:3],,1,,8,,3,
,3,,2-6[32:3],,1,,2/8-4[32:3],,,,8/1,,,,,,,,7<4[32:3],
,1,,7,,2-6[32:3],,8,,2,,8,
,8,,2<7[32:3]/1>4[32:3],,,,1-5[32:3]/2-6[32:3],,,,2/1,,,,8,
,1,,7/2-5[32:3],,,,2/8-4[32:3],,,,8/1-5[32:3],,,,1,
,7-4[32:3],,,,7,,1-5[32:3],,,,1b/Cf,,,,8,
,7,,6h[4:1],,5,,3h[4:1],,4,,7h[4:1],,,,1,
,1,,1h[4:1],,3,,5h[4:1],,7,,1h[4:1],,,,6,
,6/5,,,,6/5,,Cf,,,,4/3,,4/3,,Cf,
,,,7/8,,8/7,,B5/B4/E5f,,8/1,,E6f/B6/B5,,1/2,,B5/B4/E5f,
,8/1,,2/7,,2,,6/3,,3,,5/4,,4,,5/4,
,5,,6/3,,6,,7/2,,7,,8/1,,8,,8v5>4[32:3]/7v6-4[32:3],
,6/1,,7/8/E8f,,,,2v3-5[32:3]/1v4<5[32:3],,3/8,,2/1/E2f,,,,1/2,
,1b/2b,,,,8b/7b,,6b/5b,,4b/3b,,2b-5[32:3]/1b-6[32:3],,,,2b/1b/Cf/E6/E2,
,,,2/8-3[32:3],,1,,8/7,,6,,6/4-7[32:3],,5,,4/3,
,3,,2/1,,8/7,,6/5,,3,4,2,,1/8,,6/5,
,3/4,,2/5,2,6,,4/3h[8:1],,7,,2/5,2,6,,4/3h[8:1],
,7,,8/1-3[32:3],,1/8-4[32:3],,1-5[32:3],,8-6[32:3],,1-3[32:3],,8-4[32:3],,1,
,8,,,,3/5,,4,,5,,6/4,,6/4,,,,7/1,
,8/2>5[32:3],,1,,2/8-4[32:3],,,,8/1,,,,,,,,7/2-4[32:3],
,1,,2/7-1[32:3],,6,,7/3-5[32:3],,2,,3/7,
,8h[4:1],,,,1h[4:1],{32},,,,,,2,3,4,5,{16}6b-2[32:3]*w2[32:3],,,,6b,
,,,6b/5h[8:1],,1,,5/4h[8:1],,1,,6/5h[8:1],,1,,5/4h[8:1],
,1,,8/7,,1/2,,4/3,,6,5,7,,8-5[16:1]/1-6[16:1],,3/4,
,8b/1b,,2/4,2,6,,4/3h[8:1],,7,,2/4,2,6,,4/3h[8:1],
,7,,2,1,3,4,1,8,4,5,8,7,5,6,1bx/8bx,
,4bx/5bx,,5/4,,3,4,2,,1/8,,7/5,,3,4,3,
,6,5,7-4[32:3],,8,,7/2-5[32:3],,1,,2/7<4[16:1],,8/1-4[16:1],,7,
,1,,8,,8,,1,,1,,8/7,,6/5,,3/4,
,1b/8b,,,,5b/4b,,8b/1b,,5b/4b,,8bz4[16:1]/1bs5[16:1],,,,8b/1b`Cf,
,,,2/8,,4/6,,2/7,,3/6,{8}3h[16:3]/6h[16:3],{16},,,1,
8,1,8,2b,2,6b,6,3b,3,7b,7,1b,1,5b,5,4b,
4,8b,,7b/1b,,5/3,,7/2,,6/3,{8}6h[16:3]/3h[16:3],{16},,,4,
5,4,5,8/1,,8/1,{32},,1/8,2,3,4,5,6,7,8,{16}1b-5[32:3],,,,1b,
,,,7b/4b,,5/2,,6/3,,8/1,{8}8h[16:3]/1h[16:3],{16},,,3,
6,3,6,1b,7,3b,5,2b,8,4b,6,2b,2,4b,4,5b,
5,7b,,2b/5b,,4/7,,3/6,,1/8,{8}1h[16:3]/8h[16:3],{16},,,2,
7,2,7,8b/1b,,8b/1b,{32},,8b/1b,2,3b,4,5b,6,7b,8,{16}1b-5[32:3]*w5[32:3],,,,1b,
,,,8bx`1bx,,,,,,,,,,,,,,8bx/1bx,
,,,7bx/6bx,,5bx/4bx,,3bx/2bx,,8bxz4[16:1]/1bxs5[16:1],,,,8b/1b/Cf`B7`B8`B1`E2`B2`B3`E4`B4`B5`E6`B6`E8`E1`E5,
E
