&title=好きですが好きですか?
&artist=南ことり(cv:内田彩), 小泉花陽(cv:久保ユリカ)
&first=0.57
&des=
&wholebpm=135
&demo_seek=59.8
&demo_len=27.1
&des_5=Ragna
&lv_5=13+
&inote_5=(135){8}
8h[8:1],1,27,3h[8:1],4,25,6h[8:1],5,
7>3[3:1]/4,,2>6[3:1],,5^8[4:1],,8,,{24}
1b,2,3,4,5,6,7,8,1,7b,6,5,4,3,2,1,8,7,2b,3,4,5,6,7,
8,1,2,8b,7,6,5,4,3,2,1,8,{32}3b,4,5,6,7,8,1,2,{8}36,,
5,4,7-4[8:1],8-3[8:1],7,8,5,4,
7-3[8:1],8-4[8:1],7,8,5,4,{16}8,7,6,5,{8}
2bV41[4:1],,1,8,7-4[8:1],,8,8>4[4:1],
,4<8[4:1],,8^3[16:3],,4,,8,
4,6,2-5[8:1],1-6[8:1],2,1,4,5,{24}
1,2,3,4,5,6,7,8,1,{8}5b-1[8:1],,5b,4,8,
2b^4[8:1],,7,6pp5[16:5],5,4,3,2^4[8:1],
,4,,6pp4[32:11],,4,3,2,
1h[4:1],,8,7<7[4:3]/2pp7[4:3],,,,,
,,,,,,8,4,
5^7[8:1],,2,1pp8[16:5],8,7,6,5^7[8:1],
,1,,3pp1[32:11],,8,7,6,
5^8[8:1],8V26[4:1],,,,4bqq1[2:1]*pp7[2:1],,4b,
,,,,,78,61,52,
4V68[16:3]/3,,1,,5V31[16:3],,8,,
6,5-8[8:1],3,4,,12,83,74,
6/5>1[16:3],,8,,4<8[16:3],,1,1pp2[4:1]*qq8[4:1],
,,,,,18,27,36,
5/4V28[16:3],,7,,5V71[16:3],,2,,
3,4-1[8:1],8,7-3[8:1],,,,1,
2h[4:1]/4,,7,6h[4:1]/5,,8>4[4:1],,4bV28[4:1],
,8bV25[4:1],,5b>8[16:5],,8b,7,6,
5-1[8:1],,2,3,4-8[8:1],7,6,5pp5[4:1],
,1,,4qq4[4:1],,8,7,6,
5^8[8:1],,2,3,4^1[8:1],7,6,5V36[4:1],
,1,1h[8:3],,,5,26,37,
4/8z4[16:5],,,3,2,1<5[4:1],,5>1[4:1],
,1pp1[16:5],,5,,5,6,8bv5[8:1]/7bv4[8:1],
,,,1bv4[8:1]/2bv5[8:1],,,,1bs5[16:3]/8bz4[16:3],
,,,,4^1[8:1]/5^8[8:1],,,,
8b^3[8:1]/1b,,6-1[8:1]/8,5,4V25[4:1]/6,5,48,7-5[8:1]*-2[8:1],
,7,,3/4^1[8:1],5,4/6V47[4:1],7,68,
1h[4:1],,8,2-8[8:1]/7,,2/6<4[16:5],5,61,
,,,1-5[8:1]/5,2,1/7V51[4:1],8,74,
3bv8[8:1],,3/7v4[8:1],6,7/1V73[4:1],2,15,6-4[8:1]*-2[8:1],
,6,,1-5[8:1]/3,2,1/8>6[16:5],7,84,
,,2,1-5[8:1]/7-5[8:1],,1pp4[16:7]/7p4[16:7],,1b/7b,
,,,,3v8[8:1]/5v8[8:1],,35,,
17,26,35,4-7[8:1]*-8[8:1],,4qq5[8:3]*>5[8:3],,4,
,,,,4pp4[4:1]/7,,4qq4[4:1]*qq4[4:1]/5,,
8h[8:3],,,5,74,63,52,4b/1bw5[8:5],
,,,,,,,,
5>1[4:1]/6,,1<5[4:1],,5>1[4:1],,1,,{24}
8b,7,6,5,4,3,2,1,8,2b,3,4,5,6,7,8,1,2,7b,6,5,4,3,2,
1,8,7,1b,2,3,4,5,6,7,8,1,{32}6b,5,4,3,2,1,8,7,{8}36,,
6/4-7[8:1],5,2/4-1[8:1],3,6/4-7[8:1],5,2/4-1[8:1],3,
4/8-3[8:1],7-4[8:1],8,7,2,5,{16}1,28,37,46,{8}
5bV73[4:1],,8,1,2-8[8:1],,4,4<8[4:1],
,8>4[4:1],,4^7[16:3],,8,,3,
8^3[8:1]/2,1,8^5[8:1]/6,7,8^3[8:1]/2,1,8^5[8:1]/6,7,{24}
84,3,2,1,8,7,6,5,4,{8}8b,,7b/5,{16},2b/4,{8},
8bqq8[4:1]/1b,,4,3,2^5[8:1],,1,1<5[4:1],
,5>1[4:1],,1^6[16:3],,5,,2,
3/5v2[8:1],4,5v8[8:1]/7,6,3/5v2[8:1],4,5v8[8:1]/7,6,
5/1-5[8:1],2-6[8:1],1,2,7,4,{16}8,17,26,35,{8}
4bV25[4:1],,7,8bV61[4:1],,4,,2bV48[4:1],
,8<1[16:7],,5b,,8b,,5,
6/8^5[8:1],7,8^3[8:1]/2,1,6/8^5[8:1],7,8^3[8:1]/2,1,{24}
84,5,6,7,8,1,2,3,4,{8}1bV35[8:1]*V75[8:1],,1b,,,
3h[8:1],4,15,6h[8:1],5,48,2h[8:1],1,
48,7h[8:1],8,15,4h[8:1],5,27,1-5[8:1]/8-4[8:1],
,1b/8b,,,,,,,
E
