&title=Yuukei
&artist=Elunist
&first=-1.47
&des=Dusk
&lv_5=12
&inote_5=(80)
{4},,,{16},,,{32}E6,B5,{4}B4,E2,E3,{8}E6,E5,{4}E4,E2,E3,{8}E7,E6,E5,,A3,A2,A1,A8,{4}A7,{2}B1/B8,C,{4}E7/B6,E5/B4,E3/B2,{8}B1,B8,{4}A6/B6,A5/B5,A4/B4,{8}B3,B2,{4}E2/B1,{8}B7,B6,
(90)E6/B5,E4/B3,
(80){4}E2/B1,
(78){2}B7/E8/C,
(160.5){1}1pp4[2:11]/8qq5[2:11],,,,,,
(160)
{8}6hb[4:1],5,4,5h[4:1],3,4,6h[4:1],5,4,5h[4:1],3,4,6h[4:1],5,4,3,2h[4:1],4,5,3h[4:1],6,5,4,4,3h[8:1]/5,6h[8:1],5h[8:1],7h[8:1],4h[8:1],6h[8:1],5h[8:1],4h[8:1],3h[4:1],4,5,4h[4:1],6,5,3h[4:1],4,5,4h[4:1],6,5,3h[4:1],4,5,6,7h[4:1],5,4,6h[4:1],3,4,5,5,6h[8:1]/4,3h[8:1],4h[8:1],2h[8:1],5h[8:1],3h[8:1],4h[8:1],5h[8:1],
6b,7<4[8:1],,2,1-5[8:1],,7,8<5[8:1],,,4>1[8:1],,,7<4[8:1],,,3>8[8:1],,,6p1[8:1],,,2>5[8:1],,8,7q4[8:1],,,3>8[8:1],,5,5,6,2>5[8:1],,7,8-4[8:1],,2,1>4[8:1],,,5<8[8:1],,,2>5[8:1],,,6xq2[8:1],,,3x>8[8:1],,,7xqq4[8:3],,,4,3,2,1,1h[4:1],,8,
7b,6>3[8:1],,3,2p5[8:1],,8,7>2[8:1],,,3q8[8:1],,,6p1[8:1],,,2>5[8:1],,,1<6[8:1],,,5>2[8:1],,7,8qq5[8:3],,4,4,3,2,1,2,3<6[8:1],,6,7q4[8:1],,1,2<7[8:1],,,6p1[8:1],,,3q8[8:1],,,7x<4[8:1],,,1x>4[8:1],,,8x<5[8:1],,,2pp6[8:5],{4},,,
{1},,,,8<1[2:7],,,,
{8}7hb[4:1],5h[4:1],,8h[4:1],4h[4:1],,7h[4:1],5h[4:1],,8h[4:1],4h[4:1],,7h[4:1],5h[4:1],,8h[4:1],4h[4:1],,7h[4:1],5h[4:1],,8h[4:1],4h[4:1],,7,7h[4:1],,3h[4:1],5h[4:1],,2h[4:1],6h[4:1],,3h[4:1],5h[4:1],,2h[4:1],6h[4:1],,3h[4:1],4hx[4:1],,1h[4:1],5h[4:1],,2h[4:1],4h[4:1],,1h[4:1],5h[4:1],,2h[4:1],4h[4:1],,1h[4:1],5h[4:1],,2h[4:1],4h[4:1],,3h[4:1],5h[4:1],,4,
6hb[4:1],4h[4:1],,8h[4:1],2h[4:1],,6h[4:1],4h[4:1],,8h[4:1],2h[4:1],,6h[4:1],4h[4:1],,8h[4:1],2h[4:1],,6h[4:1],4h[4:1],,8h[4:1],2h[4:1],,7,7h[4:1],,3h[4:1],5h[4:1],,1h[4:1],7h[4:1],,3h[4:1],5h[4:1],,1h[4:1],7h[4:1],,3h[4:1],4h[4:1],,2h[4:1],1h[4:1],,4h[4:1],5h[4:1],,1h[4:1],8h[4:1],,5h[4:1],6h[4:1],,8h[4:1],7h[4:1],,1w5[8:3],
(165)6,,{2},
(160){8}1b/2b,8h[8:1]/2h[4:1],,6,3h[4:1]/5h[8:1],,7,2h[4:1]/8h[8:1],,6,3h[4:1]/5h[8:1],,7,2h[4:1]/8h[8:1],,6,3h[4:1]/4h[8:1],,7,2h[4:1]/1h[8:1],,6,3h[4:1]/4h[8:1],,7,2h[4:1]/8h[8:1],,8,1h[8:1]/7h[8:1],,5/6,6h[4:1]/4h[8:1],,2,1h[8:1]/7h[4:1],,3,6h[4:1]/4h[8:1],,2,1h[8:1]/8hx[4:1],,3,6h[4:1]/4h[8:1],,2,8h[8:1]/7h[4:1],,3,6h[4:1]/5h[8:1],,2,8h[8:1]/7h[4:1],,3,4h[8:1]/6h[4:1],,4,3h[4:1]/5h[8:1],,5,4h[8:1]/6h[8:1],,3x/7x,
2b/8b,2h[4:1]/8h[8:1],,7,4h[8:1]/6h[4:1],,3,2h[4:1]/8h[8:1],,7,4h[8:1]/6h[4:1],,3,2h[4:1]/8h[8:1],,7,4h[8:1]/5h[4:1],,3,1h[4:1]/8h[8:1],,6,4h[8:1]/5h[4:1],,3,2h[4:1]/4h[8:1],,6,5h[4:1]/7h[8:1],,8,1h[8:1]/7h[4:1],,2,3h[4:1]/5h[8:1],,6,1h[8:1]/7h[4:1],,2,4h[4:1]/5h[8:1],,6,1h[8:1]/8h[4:1],,2,5h[4:1]/6h[8:1],,7,1h[4:1]/2h[8:1],,3,4h[4:1]/5h[8:1],,6,7h[4:1]/8h[8:1],,1,2h[4:1]/6h[8:1],,5,4h[4:1]/3h[4:1],,,
{4}E6/E8/B6/B7/B1/B8/C/B4/B5,,,E6/B6/B7/B8/B1/E2/B2/B3/E8/E4/C,{1},E1/C/E5,{2},E2/E8/B1/B8/C/E5,{4}E6/E8/B6/B7/B1/B8/C/B4/B5,,,B6/B7/B2/B3/C/E2/E8/E4/E6,{1},{8}E2/E8/B1/B8/C/E5,,,C/E6/E8/E2/B1/B2/B4/B6/B7/B8,,,{2}B1/B2/B3/B4/B5/B6/B7/B8,,{4},E6/E8/B6/B7/B1/B8/C,,,E6/B4/B5/B6/B7/E4/E8,{1},E6/B4/B5/B6/B7/E4/E8,{2},C/E6/E4/B6/B7/B8/B1/B2/B3,{1}2-7[1:4]/3-6[1:4],
