&title=桜@MMFC11
&artist=前田尚紀
&first=0
&des=吹雪
&lv_5=13+
&inote_5=(150){1},
{16}46,,,2h[16:5]/4,,,,,3,,4,,35,,6,5,
{16}6,,,5/7h[16:5],,,,,6,,5,,46,,3,4,
{16}3,,,2h[16:5]/4,,,,,3,,4,,35,,6,5,
{16}6,,,5/7h[16:5],,,,5,6,4,5,3,4,,,,
{16}35,,,7h[16:5]/5,,,,,6,,5,,64,,3,4,
{16}2,,,4/2h[16:5],,,,,3,,4,,53,,6,5,
{16}7,,,7h[16:5]/5,,,,,6,,5,,64,,3,4,
{16}2b,,,4b/6b,,,7b/8b,,,2b,1b,,3b/8b,,4b/7b,,
{2}5/6h[2:1],5h[2:1],4h[2:1],3,
{4}65,43,65,E8/4,
{4}43,65,{16}43,,E2,B1,{4}B8/5x,
{4}65,E8/4,{16}43,,E2,B1,{4}B8/5,
{4}65,E8/4,{16}43,,E2,B1,{4}B8/5,
{8}6/5,4,E8,3,43,5,E2,6,
{8}65,4,E8,3,{16}43,,E2,B1,{8}B8,5,
{8}3h[4:1],1,4h[4:1],1,3h[4:1],1,A5/E6/D6,,
{8}6h[4:1],8,5h[4:1],8,6h[4:1],8,A4/E4/D4,,
{8}3h[4:1],1,4h[4:1],1,3h[4:1],1,5h[4:1],1,
{8}4h[4:1],8,6h[4:1],8,5h[4:1],A7/E7/D7,E1/B8/B1,A2/E3/D3,
{16}3x,4x,3x,,{8}3/5h[4:1],1,4h[4:1],8,A3/E4/B3,,
{16}6,5,6,,{8}6/4h[4:1],8,5h[4:1],1,A6/E6/B6,,
{16}3,4,3,,24,,5,,6,5,6,,57,,4,,
{16}3,4,3,,2,1,2,,7,8,7,,6,5,6,,
{8}48,7,6,5,2,3,4,5,
{8}37,6,5,4,2,3,4,5,
{16}6,5,{8}6,4,3,(135){8}2,3,(127){8}4,5,
(117){16}7,5,7,5,(89){8}6,4,(60){64}3,4,5,,{16},{8},
(44){64},,,{128},{64}8,7pp2[150#1:1],6,5,4,{128}3,{64},{8},{4},
(150)
{8}3h[4:7]/4,,4,,{12}4,,4,,,4,{8},4,,4,5h[4:1],,,,
{8}6h[4:7]/5,,5,,{12}5,,5,,,5,{8},5,,5,4h[4:1],,,,
{8}65,,53,,{16}3,4,2,,3,4,2,,
{8}34,,46,,{16}6,5,7,,6,5,7,,
{16}65,,4,,3,4,2,,43,,5,,6,5,7,,
{16}3,4,1,,6,5,8,,1,5,3,4,3,7,5,6h[32:17],
(160){2},
{16}5bh,,,1bh/8bh,,,3bh/4bh,,
{16}3bx/4bx,,3,,3,,3,,3,4,3,,3,,3,,
{16}3/4x,,3,,3,,3,4,3,4,3,,3,4,3,4,
{16}3,4,3,4,3,,3,,3,,3,,3,4,3,,
{16}3,,3,,3/4x,,3,,3,,3,4,3,5,4,6,
{16}5,,5,,5,,5,6,5,6,5,,56,,5,,
{16}5,6,5,,5,6,5,,56,,5,,5,6,5,6,
{16}5,6,5,6,5,,5,6,5,6,5,,56,,5,,
{16}5,6,5,,4,5,4,,3,4,3,5,4,6,5,7,
{16}8,6,1h[4:1]/5x,,,,5,,4h[4:1]/2,,,,A5/E6/B5,,,,
{16}3,1,4/8xh[4:1],,,,4,,5h[4:1]/7,,A6/B6/E7,,A4/E4/B4,,,,
{16}3,7,5h[8:1],,1,,,,6,2,4h[8:1],,8,,,,
{16}3,7,5h[8:1],,1,,,,6/5h,,4h/6,,3h/6,,2h[2:1]/6,,
{32}E5,E4,E3,E2,E1,D8,D7,D6,D5,D4,D3,D2,D1f/E1,,,,
{16},,,,A6/E6/D6/A2/D3/E3,,,,
{16}6,8,5/1h[4:1],,,,5,,4h[4:1]/2,,A3/B3/E3,,A5/E6/B5,,,,
{16}6,2,4h[8:1],,8,,2,,3,7,5h[8:1],,1,,7,,
{16}6,2,4h[8:1],,8,,2,,4h/6,,2h/8,,3h/4,,1h/7,,
{16}2b,,8,4h,6,,6x,2h,4,,4x,2h,5,1h,6,8h,
{16}7,,1h,5,3h,,3xh,7,5h,,5xh,7,4h,8,3h,1,
{16}2b,8,6x,7,2,8,6x,7,1,7,2,3x,1,7,2,3x,
{16}1bx,,,6b/8b,,,3b,4b,2b/5b,,,4b/7b,,,8b,1b,
(150){16}27,6,5,4,(135){16}2,3,4,5,(125){16}8,7,6,5,(110){16}4,3,(85){16}2,1,(74.5){16}2,3,(67){16}4,5,(47){16}6,(40){16}7,8pp8p8qq8b[160#1:1],
