&title=キミが勝利のめがみさま!
&artist=どんの音楽工房
&first=0
&des_1=光る二等星
&des_2=光る二等星
&des_3=光る二等星
&des_4=光る二等星
&des_5=光る二等星
&lv_5=13+
&des_6=光る二等星
&des_7=光る二等星
&des=光る二等星
&inote_5=(186){16}
,,,,,,,,,,,,,,,,2h[16:3],,,4h[16:3],,,5h[16:3],,,7h[16:3],,,2,,1b-5[8:1]/8b,,
,,17,,7-4[8:1],,,,3-7[8:1],,,,6-2[8:1],,,,1-5[8:1],,,,7-4[8:1],,,,3-7[8:1],,,,6,,5pp8[16:7],,
,,4,,3,,3,,2,,2,,,,1b/8b,,,,7,5,6,,34,,,,2v5[8:1]/8q4[8:1],,,,2b/8b,,
,,,,5h[8:1]/6,,,,8h[8:1]/4,,,,7/2h[8:1],,,,5h[8:1]/1,,,,4/3h[8:1],,,,2/6h[8:1],,,,18,,2bpp4[16:3],,
,,6,,7,,7,,28,,2/8-3[8:1],,,,8/4h[8:3],,,,2x,1x,8x,7x,6x,5x,43,,1b-5[8:1],,,,,,
6hx[8:13],,,,5,,,,5,,,,5,,,,5,,,,5,,,,5,,4-8[8:1],,3,,4/2h[8:6],,
,,,,1,,,,1,,8-4[8:1],,7,,8/6h[8:3],,,,,,5,,3,4,2,,1-6[8:1],,,,1/5h[8:13],,
,,B8/B7/E8,,B2/B3/E3,,,,4,,,,4,,,,3,,,,2,,,,1,,6/8-4[8:1],,7,,82,,
,,3,5,4,,6,,7b/8b,,7b-3[8:1]/8b,,,,7/4h[8:3],,,,E3,E2,E1,E8,E7,,3,,2^3-5[8:1]/5v8[8:1],,,,25,,
,,7,5,6x,,3,5,4x-8[8:1],,6-2[8:1],,4,,6,,,,3,4,3x^2-8-2^3[4:1],,5,4,5x^6-8-6^5[4:1],,,,,,,,
,,2,,3,,4,,57,,6,,5,,2,4,3<7[6:1],,3,,6,,8v3[8:1]*q4[8:1],,,,8,,,,25,,
,,6,,7^4[8:1],,7,,8v3[8:1],,8,,7^4[8:1],,7,,8v3[8:1],,8,,7,,7,,1/6,,2bx-5[8:1]/4bx-7[8:1],,,,24,,
,,8-6[8:1],,5-1[8:1],,8,,5,,,,5x,,4>5[7:2]/2,,,,3h[8:2],,,,,,{24}E3,E2,E1,E8,E7,E6,{16}4x-8[8:1],,,,
4b/2,,,,3h[8:7],,1,,1,,,,4,,4V68[16:3],,,,4,,,,2,,1q5[8:1]*v4[8:1],,,,1,,,,
6h[8:5],,,,5,,5,,,,8^3[8:1],,,,5^8[8:1],,,,1^4[8:1],,,,6pp5[8:3],,,,3,,3,,,,
2qq4[8:4],,,,,,6,,6,,,,7,,8-4[8:1],,,,,,,,,,2b/5b,,3b-7[8:1]/7b-3[8:1],,,,3x/7x,,
,,6,5,6,,4,5,4,,7,5,6,,3,5,4,,8,5,6,,3v8[8:1]/4p8[8:1],,,,34,,,,2b/6b,,
,,3,,45,,6,,7^4[8:1],,8v3[8:1],,7,,8,,,,6,,6h[8:4],,,,E8,E1,E2,E3,E4,E5,8b-5[8:1],,
,,8,,4^7[8:1],,,,3v2[7:1],,3,,,,8b-5[8:1],,,,8,,4^7[7:1],,,,3v2[8:1],,3,,,,8b,,
,,6,,54,,3,,1q5[8:1]/2,,8,,7>4[9:2],,6h[4:1],,,,,,7xv4[8:1]*p3[8:1],,,,7,,,,1b/2b,,8qq5[8:3]/3,,
,,4,,4,,3,,3,,,,2>6[6:1]/6>2[6:1],,E8/B7/E1/B1,,,,,,1xp5[8:1]/7xv5[8:1],,,,17,,,,34,,2b-6[8:1],,
,,12,,8,,7,,65,,4>5[4:1],,3,,2h[4:1],,,,,,34,,3h[8:3]/4,,E2,E1,E8,E7,E6,E5,1b-4[8:1],,
,,1,,5^2[8:1],,,,6v8[6:1],,6,,,,1b-4[8:1],,,,1,,5^2[8:1],,,,6v8[6:1],,6,,,,1b,,
,,3,,45,,6,,8pp2[16:3]/7,,1,,2<5[9:2],,3,,,,4-8b[14:1],,,,4b,,,,17,,26,,3/5-1[8:1],,
,,35,,2-4[8:1],,,,2/8-6[8:1],,,,28,,,,1-5[8:1],,7-3[8:1],,1b,,7b,,,,2-5[8:1]/1-4[8:1],,,,21,,
,,7-3[8:1],,7,,8-4[8:1],,8,,1-5[8:1],,1,,2b,,,,3^8[8:1],,,,7^4[8:1],,,,2w6[8:1],,,,2b,,
,,,,5/3h[8:1],,,,5/7h[8:1],,,,5/3h[8:1],,,,5/7h[8:1],,,,4/2h[8:1],,,,4/6h[8:1],,,,42,,18,,
,,75,,7/5^2[8:1],,,,8,,8^5[8:1],,,,1-5[8:1],,,,1/7-4[8:1],,,,7/2-6[8:1],,,,2/8-3[8:1],,,,8/4h[8:32],,
,,,,,,,,,,,,,,,,,,,,,,,,,,,,,,,,
,,,,,,,,,,,,,,,,,,,,,,,,,,,,,,5h[8:14],,
,,B6,,B7,,,,B1,,B2,,,,B4/E5,,,,E7,,E8,,,,E2,,E3,,,,4h[4:1]/6h[4:1],,
,,,,37,,,,28,,,,,,1-5[8:1],,,,,,,,2-4[8:1]/8-6[8:1],,,,,,,,5h[8:24],,
,,,,6,,,,,,,,7,,,,,,,,8,,,,,,,,1,,,,
,,,,2,,,,,,,,3,,4,,,,6,5,6,5,6,,27,,27,,,,1b/8b,,
2,4,3,5,4,,57,,4,,3,,24,,5,,6,,57,,4,,3,,2,4,2,4,2,,8b/1b,,
7,5,6,4,5,,42,,1,,8,,75,,8,,1,,42,,1,,8,,7,5,7,5,7,,1b/8b^5[8:1],,
,,83,,4qq1[8:3],,,,5,,6,,7,,8-4[8:1],,,,8/2-5[8:1],,,,2/7-4[8:1],,,,7/1-6[8:1],,,,1/5h[4:1],,
,,{32}8x,1x,2x,3x,{16}4b,,,,8v7[7:1],,8,,,,2v5[8:1],,,,2,,6^3[7:1],,7,,8v7[8:1],,8,,,,2b,,
,,3,5,4,,6,,8p4[8:1]/7,,1,,8/2<5[9:2],,3h[4:1],,,,,,2xv5[8:1]*q6[8:1],,,,2,,,,8b/7b,,1pp4[8:3]/6,,
,,5,,5,,6,,6,,,,7<3[6:1]/3<7[6:1],,28,,,,,,8xq4[8:1]/2xv4[8:1],,,,82,,,,6,5,7b-3[8:1],,
,,87,,1,,2,,34,,5<4[4:1],,6,,5/7h[4:1],,,,,,65,,6h[8:3]/5,,7,8,1,2,3,4,5b/7bv4[8:1],,
,,7,,3^6[8:1],,2,,1v3[6:1],,1,,,,7bv4[8:1],,,,7,,3^6[8:1],,2,,1v3[6:1],,1,,,,7b,,
,,6,4,5,,3,,1qq7[16:3]/2,,8,,1/7>4[9:2],,6,,,,5-1b[14:1],,,,5b,,,,82,,73,,6/4-8[8:1],,
,,64,,7-2[8:1],,,,7/3-6[8:1],,,,73,,,,8-4[8:1],,2-6[8:1],,8b,,2b,,,,7v5[8:1]/8p4[8:1],,,,78,,
,,2-6[8:1],,2,,1-5[8:1],,1,,8-4[8:1],,8,,7b,,,,6^1[8:1],,,,2^5[8:1],,,,8v5[8:1]*p4[8:1],,,,8b,,
,,3-7[8:1],,3,,2-6[8:1],,2,,1-5[8:1],,1,,8b,,,,7^2[8:1],,,,3^6[8:1],,,,1v6[8:1]*p5[8:1],,,,1b,,
,,4-8[8:1],,4,,3-7[8:1],,3,,2-6[8:1],,2,,1b,,,,8^3[8:1],,,,4^7[8:1],,,,2w6[8:1],,,,2b,,
,,,,2-5[8:1],,2,,6-2[8:1],,6,,3-7[8:1],,3,,8-4[8:1],,8,,2-5[8:1],,2,,6-2[8:1],,6,,3,,4qq1[16:7],,
,,5,,6,,6,,7,,7,,8,,8b/1b,,,,2,4,3,,65,,,,7v4[8:1]/1p5[8:1],,,,7b/1b,,
,,,,43,,2,,15,,6,,27,,3,,48,,7,,56,,4,,73,,2,,18,,7bqq5[16:3],,
,,3,,2,,2,,71,,7/1-6[8:1],,,,1/5h[8:3],,,,7,8,1,2,3,4,56,,8b>8[8:8]*<8[8:8],,,,,,
{32}
,,,,,,,,,,,,,,,,,,,,,,,,,,,,,,,,
,,,,,,,,,,Chf[32:12],,,,,,,,,,,,B2/B3/E3/B6/B7/E7,,,,,,,,,,
,,,18,27,36,45,,,,,,,,,,,,,,2>8[8:25]/7<1[8:25],,,,,,,,,,,,
,,,,,,,,,,,,,,,,,,,,,,,,,,,,,,,,
,,,,,,,,,,,,,,,,,,,,,,,,,,,,,,,,
,,,,,,,,,,,,,,,,,,,,,,,,,,,,,,,,
,,,,,,,,1hx[8:4]/8hx[8:4],,,,,,,,,,,,,,,,,{48}E8/E2,B7/B2,B6/B3,E6/E4,A5/A4,,{32},,,
,,,,,,,,,,,,,,,,,,,,,,,,,,,,,,,,
E
