&title=SACRIFICE feat.ayame
&artist=Alstroemeria Records/Ayame
&first=0
&des=NaOH
&clock_count=4
&lv_5=14
&inote_5=(180)
{1},
{4},,
{8}
4h[8:1],,,,
36,,3,4,3-8[8:1],,4,,7,6,5-3[12:1],,7-5[12:1],,
1-5[8:1],,18,,7,8,7p3[8:1],,1,,2,3,4-6[12:1],,1s5[8:1],,,,
3h[8:1]/4,,3h[8:1]/4,,2h[8:1]/5,,2h[8:1]/5,,1h[8:1]/6,,1h[8:1]/6,,8h[8:1]/7,,8h[8:1]/7,,
6,6,5,5,34,34,12,12,{16}3,6,3,6,4,5,4,5,3,6,2,7,1pp4[4:2],,,,
{8}
1b/8b,,,,5,6,7h[4:1],,1>4[8:1],,18,7V51[4:1],,2,2>5[4:1],,
5<8[4:1],,8>3[4:1],,3^6[4:1],,6<1[4:1],,1q6[4:1],,5,5,,7,7p4[4:2],,
78,,,,3,2,1h[4:1],,7-4[8:1],,27,3-8[8:1],,6,7-5[12:1],,
8-5[8:1],,1-5[8:1],,2-5[8:1],,4h[4:1],,8,1,2,3h[8:3],,8,8qq5[4:2],,
8b/1b,,,,4,3,2h[4:1],,8<5[8:1],,81,2V48[4:1],,7,7<4[4:1],,
4>1[4:1],,1<6[4:1],,6^3[4:1],,3>8[4:1],,8s4[4:1],,3,3,,2,2q5[4:2],,
28,,,,6,7,8h[4:1],,1-4[8:1],,17,6V47[4:1],,2,2-4[12:1],,
8-2[12:1],,6-8[12:1],,4-6[12:1],,2-4[12:1],,8,7,6,5h[8:3],,1b,1b-4[8:1],,
5h[8:1]/1,,1-6[8:1]/5,,5h[8:1]/1,,8-3[8:1]/5,,68,5,4,3,16,27,8-5[8:1]/3,,
4h[8:1]/8,,8-3[8:1]/4,,4h[8:1]/8,,1-7[12:1],,2-6[8:1],,3-5[12:1],,1-5[8:1],,1b/8b-4[8:1],,
8/2h[8:1],,8-6[12:1]/2,,3h[8:1]/8,,3/8-4[8:1],,18,2,3,4,35,46,5/7-4[8:1],,
8h[8:1]/7,,8/7-3[8:1],,7/1h[8:1],,
1-7[12:1],,3-1[12:1],,5-3[12:1],,7-5[12:1],,1b/7b,,
2-4[12:1],,8-2[12:1],,6-8[12:1],,4b/6b,,
3-1[12:1],,5-3[12:1],,7-5[12:1],,1b/7b,,
4-6[12:1],,2-4[12:1],,8-2[12:1],,6b/8b,,
5-3[12:1],,7-5[12:1],,1-7[12:1],,3b/1b,,
5V31[4:1],,1V75[4:1],,5>1[4:1],,1<5[4:1],,
5V31[4:1],,1V75[4:1],,5>1[4:1],,1,,5,5,4,4,6,6,3,3,
{24}7,6,5,4,,,2,3,4,5,,,{8}1-4[8:1]*-6[8:1],28,1b,,
{8}5h[4:1],,,,4h[4:1]/6h[4:1],,,,3h[4:1]/7h[4:1],,,,2h[4:1]/8h[4:1],,,,
1h[8:1],,1h[8:1]/8h[8:1],,2h[8:1]/7h[8:1],,3h[8:1]/6h[8:1],,
45,45,35,35,{16}2,6,2,6,1b-7[12:1],,,,
{8}1V35[8:1]/5,,15,7,1q5[8:1],,15,7,1>5[8:1],,15,6,8-4[8:1],1-3[12:1],8,1,
8V64[8:1],,84,2,8p4[8:1],,84,2,8<4[8:1],,84,3,1,18,{16}1,8,2,7,
{8}3bV17[8:1],,37,5,3p7[8:1],,37,5,3>7[8:1],,36,5,4-8[8:1],3-1[12:1],4,3,
7V53[8:1],,37,1,8V64[8:1],,48,2,1V75[8:1],,15,4,3,2h[4:1],{24}1,8,7,6,5,4,
{8}2h[8:1]/3h[8:1],,3h[8:1]/4h[8:1],,4h[8:1]/5h[8:1],,5h[8:1]/6h[8:1],,
1h[8:1]/2h[8:1],,3h[8:1]/8h[8:1],,7h[8:1]/4h[8:1],,6h[8:1]/5h[8:1],,
56,56,45,45,34,34,23,23,{16}1,8,3,6,4,5,2,7,1,2,3,4,{32}1-5[8:1],2,3,4,5,6,7,8,
{4}1b,4,1<6[8:1]/4,4,7pp4[4:2]/4,4,3,3,
2-4[12:1]/7,7,1-4[8:1]/7,7,8pp3[4:2]/7,7,6,5-8[8:1],
3,4-8[8:1]/3,3,4q6[4:2]/3,2,2,2,1-6[8:1],
8-3[8:1],2-5[8:1],7-4[8:1],2q4[8:3],{8}5,6,7,8,,8b,8b-5[8:1],,
2-7[8:1],,4-1[8:1],,6-3[8:1],,6b/8b,,
1-6[8:1],,3-8[8:1],,5-2[8:1],,5b/7b,,
6-3[8:1],,8-5[8:1],,2-7[8:1],,4b/2b,,
3-8[8:1],,5-2[8:1],,7-4[8:1],,1b/7b,,
1V35[4:1],,5V31[4:1],,1V75[4:1],,5V71[4:1],,
1V35[4:1],,5V31[4:1],,1V75[4:1],,5,,8,8,18,18,28,28,38,38,
{16}48,,7,5,6,,2,4,3-6[8:1],,24,,3,,,,
{24}1b/8b,27,36,5h[4:1]/4,,,3,2,1,8h[4:1],,,7,6,5,4h[4:1],,,8,1,2,3,,,
34,25,16,78,,,{8}15,37,2-5[8:1]/6-1[8:1],48,2b/6b,,
{24}8b-4[8:1]/2b,7,6,5,,,{16}2-5[8:1]/8,,1,,8<5[8:1]/2,,,,
1>4[8:1]/8,,2,,1/8-3[8:1],,,,8<5[8:1],,5-1[8:1],,8,,3,,2,3,4,5,
{24}8bp4[8:1],7,6,5,,,{16}3v8[8:1]/8,,2,,7<4[8:1]/3,,,,
3-7[8:1]/7,,3,,1V75[8:1]/3,,,,14,,3,,2h[8:3],,{24}7,6,5,4,,,8,7,6,
{16}1bq5[8:1]/5b,,,,7v4[8:1]/1,,6,,1>4[8:1]/7,,,,
8<5[8:1]/1,,7,,1-6[8:1]/8,,,,1>4[8:1],,4-8[8:1],,1,,6,,7,6,5,4,
{24}1bq5[8:1],2,3,4,,,{16}6v1[8:1]/1,,7,,2>5[8:1]/6,,,,
6-2[8:1]/2,,6,,8V24[8:1]/6,,,,85,,6,,7h[8:1],,{24}2,3,4,5/8h[8:1],,,1,2,3,
{16}8bV64[8:1]/4b,,,,8-2[12:1],,3,,8V64[8:1],,,,
8-2[12:1],,3,,8V64[8:1],,,,8,,2,,2,1,2,1,2,,38,,
{24}2b/5h[8:1],,,8,1,2,3/4h[8:1],,,1,2,3,4/5h[8:1],,,2,3,4,56,,,7,,,
8b/2h[8:1],,,1,8,7,6/5h[8:1],,,8,7,6,5/4h[8:1],,,7,6,5,43,,,2,,,
{16}1,8,2,7,4,5,3,6,2,1,3,8,5,6,4,7,1,2,3,4,5,6,7,8,
{32}1,2,3,4,5,6,7,8,1,2,3,4,5,6,7,8,{48}1b-5[16:1]/5b-1[16:1],2h/6h,3h/7h,4h/8h,
