&title=Who Killed U.N.Owen
&artist=LizTriangle
&first=0
&des=Sage谱组_红魔馆本部
&freemsg=
&wholebpm=61.66666666666667-127
&des_1=
&des_2=
&des_3=
&des_4=
&des_5=Sage谱组_红魔馆本部
&clock_count=4
&lv_5=495
&inote_1=
&inote_2=
&inote_3=
&inote_4=
&inote_5=(80)
{1},{64},{256},
{1}4-1-6-3b[2:3],,
{1}2qq5b[2:3],,
{1}2V86qq5[2:3]*V86qq5b[2:3],,{256},,,,,
(127)
{8}7h[8:3]/4h[4:1],,,2h[8:3],6h[8:3],,,3h[8:3],8h[8:3],,,1h[2:1],8,7,6,5,
{4}2x^5[8:1],B3/B4,8x^5[8:1],B6/B7,1x^4[8:1],B2/B3,{8}8h[2:1],5,4,3,
{4}2-5[8:1],2/1,7-4[8:1],3/7,1-4[8:1],8/1-6[8:1],3/1-5-2[4:1],1/7,
{4}8-4[8:1],3/8,2-5[8:1],2/6,{16}8,7,6,,1,,2,,3,,4b/8b,,2b/6b,,,,
{8},3^6[8:1],2,1,8^3[8:1],7,6,5,
{4}4pp7[4:3]/5qq2[4:3],,,,
{8},1v6[8:1],2,3,4v1[8:1],5,6,7-4[8:1],8-3[8:1],7,8,5q2^5[8:3],5pp5[4:1],,,,
{8},4V28[4:1],7,6,5,4V68[4:1],2,3,4xq6[8:5]*p2[8:5],,,,,,,,
{8}3-7[8:1]/7-4[8:1],8,3/7,,1-5[8:1]/5,2,1/6-1[8:1],7,3-8[8:1]/6x,4,3x/6-2[8:1],5,6x/2,,3^6^3^6b[4:3]/7p2q7p2b[4:3],,
{4}A3/A7,A2/A6,A3/A7,A2/A6,
{16}3,4,2,,{8}8,1,2/6,3/7,4x^1^4^1b[4:3]/8x^5^8^5b[4:3],,
{4}A4/A8,A1/A5,A4/A8,A1/A5,
{8}3,6,4/5,4/5,2/7,B2/B3/B6/B7/C,B2/B3/B6/B7/C,,
{8}7^4b[8:1]/3q8b[8:1],C/E6,,,2^5b[8:1]/6p1b[8:1],C/E4,,,
{16}7,5,6,,{8}3,4,1/5,2/6,7/3x^8[4:1],,
{8}8^5[4:1],,5^2[4:1],,2^7[4:1],,7,,
{8}B6,B2,C,B3,B7,,5v3[8:1],3q7[8:1],
{8}5,2,1-6[8:1],6v3[8:1],1,,8-4[8:1],7,
{8}6,5^8[8:1],4,3,2-6[8:1]*-5[8:1],,C,,
{8}8xbqq8b[8:3],4xb,3xb,2xb,1xpp1[8:3],,B8,B7,
{8}B6,B5,2q7[8:1]/6q3[8:1],3/7,C,,1-5[8:1],7,
{8}1,8-4[8:1],4^7[8:1],8,3p1[8:3],,8,7,6,5,3v1[8:1]/7v5[8:1],4/8,C,,6-1-5[4:1],,
{8}1,2,3^8[8:1],4,5,6^3[8:1],7,8,1qq5[2:1],,,2,2,,3pp2[4:3],,
{4}7h[4:1],,
{4}Ch[4:1],,{8}B6/B7,D7,E6/E8,C,E2/E4,D3,B2/B3,8b,
{4}6v1[8:1]/2-5[8:1],6/2,7-4[8:1]/4-8[8:1],7/4V61[4:1],
{8}4/2,,3-7[8:1],4,3^6[8:1]/7^2[8:1],,3/7p6[8:3],,
{8}7,4,3,2,1/5,{16}7,8,{8}6,1,
{8}2/B6,3,B4/8,7,6-1[8:1]/2-5[8:1],,Cf,,
{4}7-4[8:1]/3v8[8:1],7/3,1-5[8:1]/6-1[8:1],6/1V74[4:1],
{8}1/3,,2-6[8:1],1,2/8^3[8:1]*^5[8:1],,8p6[8:3],,
{8}8,4,3,2,5/1,{16}3-6^3[2:1],4,{8}2,8,
{4}Cf,B7/B8,2^7[4:1],B3/B4,
{4}6-1[4:1],B2/B3,2-5[8:1],{8}7/2x,8xbv3b[8:1],7xb-4b[8:1],8xb,7xb,1-5[8:1],2,3,4,{16}6,5,
{8}7,2,3^6[4:1]/6^3[4:1],B7/B2,3/6,,,,
{4}7^2[4:1],E5/E4,3^6[4:1],E1/E8,
{4}7-4[4:1],E2/E3,3-8[8:1],{8}3x/6,B7,
{8}4v1[8:1]/6v1[8:1],B3,4/6,,7-4[8:1]/8-4[8:1],7/8,B2/B3/B4/B5/B6/B7/C/E5,,
{8}1/6,3/8,2/4,5/7,1w5[8:1]/8,,
(61.66666666666667)
{64}1b,B1,Cf,B5/B4/B6,{16},
(61.66666666666667)
(61.66666666666667)
{12}4,E6,E4,6,B3,B6,2q7[8:1]/6q3[8:1],D7/E7,E3/D3,2/6,,,2-8[24:1]/7x,C,{24}6,6,{12}2x-6[24:1],C,{24}7,7,{12}2x-4[24:1],E1,{24}8,8,2x,,E6,B5,B6,C,2/7x-1[24:1],,C,,3,3,7x-3[24:1],,C,,2,2,7x-5[24:1],,E1,,1,1,7x,,Ch[8:1],,B5,B4,{12}1xV35[12:1]/6x,C,{24}2,7,{12}1xV75[12:1],C,{24}6,3,{12}1x>5[12:1],C,{24}2,6,{12}1xb/C,{24},,E7/C/E3,,{12}1/8-3[24:1],2,3,4-8-3[24:4]b,5,6,7h[24:4],,,A6/E7/E6/B6/B7/B5/Cf/B1/B3/B2/E2/E3/A2,D1,D8,1xh[6:1],D2,D1,2xh[6:1],D3,D2,3xh[6:1],{24}D4,D5,D6,D7,D8/1^3qq4[4:1],,,,5x,,4^6qq7[4:1],,,,8x,,7^1qq2[4:1],,,,1x,,8h[6:1],,,,,,6^4pp3[4:1]/A2,,,,2x,,3^1pp8[4:1],,,,8x,,C,,4x,,5x,,C/A8,,16,,38,,1b/2h[24:5]b,
,B2,C,B6,6x,6h[24:5],,B6,C,B3,3x,3h[24:5],,B3,C,B5,5x,5w1[24:2]b,,,,{96}E6/E5,B6/B4,B7/B3,E8/E3,,,,,{12}5,,,8^2-4^6v8[4:1]b,1,2,83,,4,A5f/E6/E5/B5,,,{24}2-6[24:1],2,1,,E8/B8/B7,,2/5-8[24:1],5,4,,B1/E2/B2,,5qq1[6:1]*pp1[6:1]/3,,1,,7,7,5,,,,A1,,7-3[24:1],7,1,,E2/B1/B2,,4-1[24:1]/7,4,5,,E6/B6/B5,,4-1-7-3[6:1]b/6,,5,,2,2,4b/5h[6:1]b,,,,,,Ch[4:1]/B7/B3,,2,,3,,4q5[4:1]b,,6b/3b,,6b/3b,,C/4,,8,,7,,6-2[24:
1],,Ch[12:1]/7b,,5b,,6/4-8[16:1],,3,,2,,1-5[16:1]/4,,2,,3,,(61.66666666666667){128}4xz8[16:5]*z8[16:5]/1x,,,,,,,,,,,,,,,
(175){4}3x,(160){4}6x,{128}Chf[32:29],,,,,,,,,,,,,,,,,,,,,,,,,,,,,,,,,,,,,,,,,,,,,,,,,,,,,,,,,,,,,,,,,,,,,,,,,,,,,,,,,,,,,,,,,,,,,,,,,,,,,,,,,,,,,,,,,,,
(61.66666666666667)
{24}1b^2-4-8[8:1],,7h[8:1]/2,,,1,7V15[8:1]/1,,6h[6:1],,,,7,,,,1,8,Ch[6:1]/4w8[16:1]b,,,,,,4pp2[6:1],,2x/6x,,1,8,8/4q8[16:1],,7x,,6x,,4^7-4[6:1]/1^3-8[6:1],,A2/D3/A3,,A7/A6/D7,,4x/1x,,,,,,8^7-5-1[8:1]/2,,2h[6:1]/8,,,,8V24[8:1],,3h[6:1],,,,8,,,,8,1,Ch[6:1]/5w1[16:1]b,,,,,,5pp1[6:1]*qq1[6:1],,,,1,8,5,,D4/D7,,,,{96}1xb-5<4[6:1]b/5xb,E1f/E5,B8/B4,B7/B3,E7/E3,,,,,,,,,,,,{24}3,7,15,,C,,,,{96}8xbz4>5[4:1]b/4xb,E1/E5,B1/B5,B2/B6,E3/E7,,,,{24}2x/6x,,4,5,8/4,,C,,,,1h[12:1]b,,4h[12:1],,7h[12:1],,8w4[24:1]b,,,,C/B1/B7/A1/A7/E7/B6/B5/B4/B3/B2/E2,,{48}8b,Cf,,,,,,,,,,{256},,,,,,,,
(127)
{8}3/4,2,1,8,7-4[8:1],{16}8,1,{4}2x/7x,
{8}5/6,7,8,1,2-5[8:1],{16}1,8,{4}2x/7x,
{8}6,5,4,{16}3-5[8:1],4,3,4,{8}3,6,7,
{8}1/8,2,1/8,7,{4}3-5[8:1]/6-4[8:1],3x/6x,
{8}3h[2:1],4,5,6,7h[4:1],{16}2,3,{4}4x,
{8}6h[2:1],5,4,3,2h[4:1],{16}7,6,{4}5x,
{8}3^8[8:1],4,5,6,
{8}7-4[8:1],8,1,{16}2,,3^6[8:1],4,
{8}2,1,8,78,18,{16}21,,3,8,C,,,,{4}2/6-8[8:1],2-4[8:1]/6,2/6,
{8}3/7,5,2/6,4,{8}3-5[8:1]/7-1[8:1],B6/B2,3/7,,
{4}7-5[8:1]/3,3-1[8:1]/7,7-5[8:1]/3,3/7,
{8}2/6,4,3/7,5,{8}2-8[8:1]/6-4[8:1],B7/B3/A7/A3,2/6,,
{2}3qq8[2:1]/4xh[4:1],5xh[4:1],
{2}6pp1[2:1]/5xh[4:1],4xh[4:1],
{4}2>4[8:1],1,7<5[8:1],8,
{8}13,24,35,46,28,35,78,34,
{8}1/8,1/8,2/7,3/6,{4}4-1[8:1]/5-8[8:1],{48}4/5,Cf,,,,,,,,,,,
{4}1x/2x-4[8:1],2/5-1[8:1],4-8[8:1]/5,4/5,
{4}7x-5[8:1]/8x,7/4-8[8:1],4/5-1[8:1],4/5,
{4}3x-1[8:1]/4x,3/8-4[8:1],1-5[8:1]/8,1/8,
{4}3x-8[8:1]/7x-4[8:1],3/7,1>4[8:1]/5<8[8:1],A1/A5,
{4}1<6[8:1]/A2,1-5[8:1]/A3,1>4[8:1]/A7,5<8[8:1]/A1,
{4}5-1[8:1]/A4,5>2[8:1]/A3,5/A8,1-5[8:1]/8-6[8:1],
{4}1b/8b,1-3[8:1]/8-4[8:1],1b/8b,7<4[4:1],
{4}4>1[4:1],1<6[4:1],6>3[4:1],3x,
{8}1b,2,8,7,3,4,2,,
{8}1-4[8:1],1-5[8:1]b,1-6[8:1],,{4},1x/8x,
{8}3,4,6,5,{4}7h[2:1],8p5[4:3],
{1},
{2}4h[4:1],3h[4:1],
{2}5h[4:1],6h[4:1],
{2}5h[4:1]/B5,4h[4:1]/B4,
{2}3h[4:1]/B3,2>4[8:1]/B2,
{4}6xV84[4:1],4,3xV15[4:1],5,
{4}6x-1-4[4:1],4,3x-8-5[4:1],5,
{8}6x,7,8,1,2/7,{16}1,8,{8}1>8[4:3],1,
{1}1xh[4:3],
{8}3-8[8:1],7-4[8:1],3,7,{4}1w5[8:1],{48}1b,Cf,,,,,,,,,,,
{4}4/8<5[8:1],{32}4,3,2,1,{8},{4}5/1>4[8:1],{32}5,6,7,8h[32:5],{8},
{32}5<8[8:1],4,3,2,{8},5>2[8:1],4,{4}5q1[8:1]*p1[8:1],5x,
{8}8,1,7,2,3/6,{16}5,4,{8}6,5/6,
{8}4/5,4/5,5/6,5/6,{4}4>2[8:1]/5<7[8:1],4x/5x/D5f,
{4}1>4[8:1]/8,{32}8,7,6,5,{8},{4}1/8<5[8:1],{32}1,2,3,4h[32:5],{8},
{32}1>4[8:1],8,7,6,{8},1<6[8:1],8,{4}1v4[8:1]*-5[8:1],1x,
{8}3/4,3/4,4/5,4/5,3/4,{16}3,4,{8}3>4[4:3],3,
{1}3h[4:3]b,
{8}6-1[8:1],2-5[8:1],6,2,{4}8w4[8:1],8b,
{8}2/4,3,4x/5x,{16}6,5,{8}6,4/7,3x/6x,{16}3,4,
{8}2,1/2,3x/8x,4/7,{4}5-2[8:1]/6-1[8:1],{32}5x/6x,E6,C,E2,,,,,
{8}3,4h[1024:1],6,5h[1024:1],4,3h[1024:1],{1024}1h[1024:1],2,{512},{256},{128},{64},{32},{16},{8},
{4}2qq4[8:3]/5pp3[8:3],{16},,,,{4},2b/5b,
{8}7/8,1/6,2x/5x,{16}3,4,{8}3,2/5,3xqq5[2:1]/6x,,
{8}5,6,7,8,{4}1>4[8:1]*<6[8:1],1x,
{8}4/5,3,4/5,6,4/5,3,4/5,,
{4}4qq6[8:3]/7pp5[8:3],,,4b/7b,
{8}2/8,3,4x/5x,{16}6,5,{8}6,1/7,2x,{16}3,4,
{8}3,2/4,1x/5x,6/8,{4}7w3[8:1],7x,
{8}3/5,4,4/6,5,4/5,3/6,2/7,,
{8}2-4[8:1],6-8[8:1],2,6,{4}5w1[8:1],5b,
{8}7/8,6,4x/5x,{16}3,4,{8}3,1/2,1x/8xh[4:1],,
{8}1,2/8,3/7,4/6,{8}6h[4:1]/4,C,{32}4,3,2,1,8,7,6,5,{8}4h[8:3]b,2b,8b,6b,
{8}6/Cf,7,3/4,2,5/6,7,3/4,2,
{8}5/7,6,2/4,3,5/7,6,2/4,3,
{8}1/7,8,2/8,1,1/7,8,2/8,1,
{16}7,8,6,1,7/8-4-7[4:1],,1,2,3,,E2/D2,,E3/D3,,,,{8}7/8,A1,6,,1/2,A8,3,,
{8}2-4[8:1]/8h[4:1],A1,2,,1h[4:1]/7-5[8:1],A8,7,,
{8}5-3[8:1]/7h[4:1],A6,5,A7,3-1[8:1]/5h[4:1],A4,3,A5,
{16}4,5,{8}3,2/6,3/7,7-3[8:1]b*-4[8:1]b/3,1/5,{24}7b,C,
{1},,
E
