&title=トオトロジイダウトフル
&artist=ツミキ
&first=0.013
&des=Tane
&freemsg=ツミキ
&wholebpm=
&des_1=Tane
&des_2=Tane
&des_3=Tane
&des_4=Tane
&des_5=Tane
&lv_4=10
&lv_5=12+
&inote_4=(147){1},
{8}1,,1,,
{16}2-5[4:1],,,,
,,,,
{8}6^3[4:1],,,,
1,,,,
{8}8,,8,,
{16}7-4[4:1],,,,
,,,,
{8}3^6[4:1],,,,
8,,,,
{8}1h[8:3]/8h[8:3],,,,
7h[8:3]/2h[8:3],,,,
{8}6h[8:3]/3h[8:3],,,,
4h[8:3]/5h[8:3],,,,
{8}45,,4,,
45,,5,,
{16}3,,3,,
6,,6,,
{12}1,,,
2,,,
{16}3-8[4:1],,,,
5,,,,
6,,,,
6,,,,
{16}7-4[4:1],,,,
3,,,,
3,,,,
4,,,,
{16}3-8[4:1],,,,
5,,,,
6,,,,
6,,,,
{16}1,,2,,
3,,,,
{16}8,,7,,
6,,,,
{16}6-1[4:1],,,,
4,,,,
3,,,,
3,,,,
{16}2-5[4:1],,,,
6,,,,
6,,,,
5,,,,
{16}6-1[4:1],,,,
4,,,,
3,,,,
3,,,,
{16}8,,7,,
6,,,,
{16}1,,2,,
3,,,,
{8}3h[4:1],,,,
{16}3-8[4:1],,,,
,,,,
{8}5,,56,,
47,,56,,
{8}7h[4:1],,,,
{16}7-4[4:1],,,,
,,,,
{8}1,,12,,
83,,12,,
{8}6h[4:1],,,,
{16}6-1[4:1],,,,
,,,,
{8}4,,43,,
52,,43,,
{8}3h[4:1],,4,,
6h[4:1],,5,,
{4}2h[4:1],4,5q6[4:1],,
{16}3-8[4:1],,,,
5,,,,
6,,5,,
6,,,,
{16}7-4[4:1],,,,
3,,,,
3,,3,,
4,,,,
{16}3-8[4:1],,,,
5,,,,
6,,5,,
6,,,,
{16}1,,2,,
3,,,,
{16}8,,7,,
6,,,,
{8}2h[4:1],,,,
{16}2-5[4:1],,,,
,,,,
{8}8,,87,,
16,,87,,
{8}6h[4:1],,,,
{16}6-1[4:1],,,,
,,,,
{8}4,,43,,
52,,43,,
{8}7h[4:1],,,,
{16}7-4[4:1],,,,
,,,,
{8}1,,12,,
83,,12,,
{8}2h[4:1],,1,,
7h[4:1],,8,,
{4}3h[4:1],1,8p7[4:1],,
{8}1,,,,
28,,28,,
{8}2>6[8:5],,,,
,,,,
{8}4,,,,
35,,35,,
{8}5<2[8:5],,,,
,,,,
{8}8,,,,
17,,17,,
{8}1,,,,
28,,28,,
{8}2h[8:3]/7h[8:3],,,,
3h[8:3]/6h[8:3],,,,
{8}4h[4:1],,5,,
6h[4:1],,3,,
{8}28,,,,
2,1,2,1,
{8}38,,,,
3,4,3,4,
{8}25,,,,
7,8,7,8,
{8}16,,5,,
3,3,4,4,
{8}25,,,,
2,1,2,1,
{8}38,,7,,
7,8,7,8,
{8}16,,,,
18,,27,,
{8}34,,56,,
78,,12,,
{4}2b-4[8:1],1,7-5[8:1],8,
{8}4,4,3,3,
2^7[4:1],,,,
{8}6b,,3,,
34,,6,,
{8}6,6,7-5[8:1],,
8,,1,,
{12}1,8,1,
2b/7b,,,
{8}4,4,5,5,
{8}3b/6b,,27,,
36,,27,,
{4}1^4[4:1],,8^5[4:1],,
{8}1b,,3b,,
5b,,7b,,
{8}8h[4:4],,,,
,,,,
{8}5,,4,,
3,,2,,
{8}1h[4:4],,,,
,,,,
{8}4,,5,,
6,,7,,
{8}8h[16:6],,,,
2h[16:7],,,,
{8}4h[16:7],,,,
6h[16:7],,,,
{8}1h[16:6],,,,
{16}1,,,,
18,,,,
{8}71,,,,
7,8,7,8,
{8}61,,,,
6,5,6,5,
{8}74,,,,
2,1,2,1,
{8}83,,4,,
6,6,5,5,
{8}74,,,,
7,8,7,8,
{8}61,,2,,
2,1,2,1,
{8}83,,,,
81,,72,,
{8}1b/6b,,,8b<1[2:2]/3b,
,,,,
{8},,,,
,,,,
{8}8^5[4:1],,,,
3,,1,,
{8}1-5[4:1],,,,
6,,7,,
{8}8-4[4:1],,,,
3,,2,,
{8}8^3[4:1],,,,
7,,6,,
{8}1^6[4:1],,,,
2,,3,,
{8}4h[8:1],,5h[8:1],,
{16}5,,5,,
4,,4,,
{8}3,,,,
3,,,,
{8}2,,1,,
8,,7,,
{8}56,,,,
{16}56,,,56,
,,47,,
{8}8,,8,,
8,,8,,
8b,,,,
&inote_5=(147){1},
{8}8,,1,,
{16}2h[16:3],,,4h[16:3],
,,5-2[8:1],,
{8},6,7,,
8-5[8:1],,1,,
{8}1,,8,,
{16}7h[16:3],,,5h[16:3],
,,4-7[8:1],,
{8},3,2,,
1-4[8:1],,8,,
{8}1h[8:3]/2h[8:2],,,,
7h[16:4]/8h[8:3],,,,
{8}1h[8:2]/3h[8:3],,,,
6h[8:3]/8h[8:2],,,,
{8}2/3h[8:3],,1,,
6h[8:3]/7,,8,,
{16}3,4,3,,
6,5,6,,
{12}3,4,1,
8,5,6,
{16}4-7[8:1]/7,,35,,
2,,,3h[16:3],
,,8,,
17,,6,,
{16}2/5^2[8:1],,46,,
7,,,6h[16:3],
,,8,,
17,,2,,
{16}4-7[8:1]/7,,35,,
2,,,3h[16:3],
,,8,,
17,,6,,
{16}2/5^2[8:1],,46,,
7,,,,
{12}7,5,8,
3,4,1,
{16}5-2[8:1]/2,,64,,
7,,,6h[16:3],
,,1,,
82,,3,,
{16}7/4^7[8:1],,53,,
2,,,3h[16:3],
,,1,,
82,,7,,
{16}5-2[8:1]/2,,64,,
7,,,6h[16:3],
,,1,,
82,,3,,
{16}7/4^7[8:1],,53,,
2,,,,
{12}2,4,1,
6,5,8,
{8}3h[8:1],,2/3-8[8:1],,
{16}1,,,2,
,,3-8[8:1],,
{8},4,,6,
6/5h[4:1],,7,,
{8}5-1[8:1]/7,,8-3[8:1],,
{16}1,,,2,
,,3-8[8:1],,
{8},,,8,
17,26,35,,
{8}6h[8:1],,7/6-1[8:1],,
{16}8,,,7,
,,6-1[8:1],,
{8},5,,3,
3/4h[4:1],,2,,
{8}3,2,1-6[8:1],,
{16}8,,,7,
,,6,,
{16},,3,4,
3,,2,,
{12}7,1,4,
2,8,5,
{16}4-8[8:1]/7,,35,,
2,,,1-5[8:1],
,,8,,
7,,6,,
{16}5-1[8:1]/2,,64,,
7,,,8-4[8:1],
,,1,,
2,,3,,
{16}4-8[8:1]/7,,35,,
2,,,1-5[8:1],
,,8,,
7,,6,,
{16}5-1[8:1]/2,,64,,
7,,,,
{12}7,8,4,
2,1,5,
{8}5h[8:1],,5-1[8:1]/7,,
{16}6,,,7,
,,8-4[8:1],,
{16},,1,,
,,2h[4:1],,
,,4,,
4,,3,,
{8}5-2[8:1],,5/7-3[8:1],,
{16}8,,,1,
,,2h[4:1],,
{16},,,,
,,2,1,
2,,3,,
4,,35,,
{8}4h[8:1],,4-8[8:1]/2,,
{16}3,,,2,
,,1-5[8:1],,
{8},8,,7,
57,6,24,3,
{16}5h[4:1],,,6,
6h[4:1],,,8,
8^5[8:1],,,,
,,,,
{16}4h[4:1],,,3,
3h[16:3],,,1,
{12}1,7,5,
8,2,4,
{8}1,,1,,
28,,28,,
{8}2>6[8:5]/8V25[8:5],,,,
,,,,
{8}4,,4,,
35,,35,,
{8}3V51[8:5]/5<2[8:5],,,,
,,,,
{8}8,,8,,
17,,17,,
{8}1,,1,,
28,,28,,
{8}2h[8:3]/7h[8:3],,,,
{16}4,5,4,5,
4,5,4,5,
{8}4h[4:1],,3h[4:1],,
2h[4:1],,1,,
{8}8-3[8:1]/7-4[8:1],,,,
{16}2-5[8:1],,6,6,
,7,,7-4[8:1]*-3[8:1],
{8},,,,
{16}2^5[8:1],,7,7,
,8,,8^5[8:1]*^3[8:1],
{8},,,,
{16}1-5[8:1],,6,6,
,7,,7^4[8:1],
{8},,3,3,
{16}2-5[8:1],,8,8,
,7,,7-4[8:1]/6v1[8:1],
{8},,,,
{16}2^5[8:1],,8,8,
,7,,6-1[8:1],
{16},,,,
,,4,4,
{16}8-4[8:1],2,,1,
,2,,3^6[8:1],
{8},,,,
{16}8,,2,2,
,4,,,
{8}5q3[8:1],,4p6[8:1],,
7q4[8:1],,2^5[8:1],,
{8}7b-4[8:1],,1,,
{16}2,,2,4,
,3,,3,
{16}6,5,6,2,
6,5,6,3,
6,5,6,2,
{12}7,8,1,
{16}2b,,8,8,
2,7,4,7,
2,6,4,6,
2,5,4,5,
{16}3,3,,2>6[8:2],
,1,,8z4[8:2],
,,,,
,,,,
{12}2,1,8,
7b,,,
{16}3,5,3,5,
8,,17,,
{16}1b/7b,,,,
{24}6,7,8,1,2,3,
6,7,8,1,2,3,
{16}5,4,5,4,
{16}6,6,,7,
,8,,8,
2,8,2,8,
5,6,5,,
{8}5b/6b,,7b/8b,,
1b/2b,,3b/4b,,
{8}2/5h[4:4],,2,,
2,,2,,
{8}2,,27,,
26,,25,,
{8}7/4h[4:4],,7,,
7,,7,,
{8}7,,74,,
73,,72,,
{8}8h[16:6]/7h[16:7],,,,
2h[16:7]/1h[16:6],,,,
{8}3h[16:6]/4h[16:7],,,,
6h[16:7]/5h[16:6],,,,
{8}8h[16:7]/1h[16:6],,,,
{16}1,,8,1,
,27,,,
{8}7-4[8:1]/8-3[8:1],,78,,
{16}78,,1,6,
,5,2,,
{8}3-8[8:1]/4-7[8:1],,34,,
{16}56,,7,4,
,3,8,,
{8}1-6[8:1]/2-5[8:1],,12,,
{16}12,,8,3,
,4,7,,
{8}5-1[8:1]/6,,56,7,
{16}8-4[8:1],,1,1,
,2,2,,
{8}2-5[8:1]/6-1[8:1],,26,,
{16}48,,7,3,
,2,6,,
{16}1-5[8:1]/5,,,,
15,,7,,
{16}8,4,,3/1-5[8:1],
,28,,7<2[4:1],
{8},,,,
{16}1,,1,8,
,27,,,
{8}1b/6b,,12,8b<1[2:2]/3b,
,,,,
{8},,,,
,,,,
{8}8^5[8:1],1,2,,
1,28,3,47,
{8}1-5[8:1],,7-4[8:1],,
2-5[8:1],,8,,
{8}1^4[8:1],8,7,,
8,71,6,25,
{8}8^3[8:1],7,6,,
{16}6,,2,5,8,,17,,
{8}1^6[8:1],2,3,,
{16}3,,7,4,1,,28,,
{8}4h[8:1]/7h[8:1],,2h[8:1]/5h[8:1],,
{16}5,4,5,4,
5,4,5,,
{8}3,,3,,
3,,3,,
{8}2,,1,,
8,,7,,
{16}6,5,6,,
47,,,,
25,,3,25,
,6,47,,
{8}8,,8,,
8,,8-4[8:1],,
8b,,,,
