&title=めんどくさいモード
&artist=Ponchi♪ feat. 初音ミク「Rotaeno」
&first=0.05
&lv_6=14
&des_6=まるくんの“めんどくさいモード” respects for 闇靈DarkM
&inote_6=
(205){4},,,,{1}Ch[4:3],
{8}2,2,6,E3,6,E4,7,E3,
6,6,3,E7,2,E6,2,E7,
3,3,6,E4,7,E3,6,{32}1,2,{16}3,
{8}4bh[2:1],8,8,8,{32}8,7,6,5,4,3,2,1,{4}8/Cf,
{8}3,{16}3,4,{8}3,{48}7,E8,,,,,{8}3,{48}6,E6,,,,,{8}2,2,
6,{16}6,5,{8}6,{48}2,E2,,,,,{8}6,{48}3,E4,,,,,{8}7,7,
3,{16}3,4,{8}3,{48}7,E8,,,,,{8}3,{48}6,E6,,,,,{8}2,{32}6,7,{16}8h[16:7],
,,{8}3,3,3,6,{48}2,E2,{12}B1,{48}7,E8,{24}B8,,,,,{8}6b/2b,
6b/2b,{4}1b/5b,{8}6b/2b,6b<1b[48:5]/2b>5b[48:5],,6b/2b,
,A6,E6,B5,B4,E4,{4}A3f,
6<3p6[2:1],4,4,4,
4b<8b[4:1],8b>4b[4:1],4b<8b[4:1],8b>4b[4:1],
{8},7x,{4}7x-1-5-3[24:7],{32},,,,,,,,,,,,,,,,8b/1b,
7bx/2bx,{16}6bx/3bx,{32},,,,1b/8b,7bx/2bx,{16}6bx/3bx,{32},,,,1b/8b,7bx/2bx,{16}3bx/6bx,{32},,,,1b/8b,7bx/2bx,{16}3bx/6bx,,,{2}B7/B6/E6/B8/B1/B3/B5/B2/B4/E8f,
{4}3h[8:1]/1-6[12:1],3h[8:1],
3h[8:1]/2-6[48:5],3h[8:1],{2}5v2[12:1]*v8[12:1],
{4}B2h[1:1],B1h[4:3],B8h[2:1],B7h[4:1],
{8}Cf,,,,,6/2,6/2,6/2,
{4}5/1v3[12:1],5,5/1v4[12:1],5,
6h[8:1]/5h[8:1],5h[8:1]/4h[8:1],4h[8:1]/3h[8:1],5h[8:1]/4h[8:1],
{8}5-7[48:5],5,4-2[48:5],4,5-7[48:5],5,,,{4}5<7[12:1]/4>2[12:1],
4-8[12:1]/5-1[12:1],5<7[12:1]/4>2[12:1],5/4,
{2}E2f/D2/A2/B2/A1/B1,{4}2>4[48:5]/6>4[48:5],6/2,
7<5[48:5]/3<5[48:5],3/7,3>1[48:5]/7>1[48:5],{48}7/3,,,,,,,,,,,Ch[48:37],
,,,,,,,,,,,,{4}8b,1b,2b,
{16}2,1,2,1,{48}2,,,,,,,1bx,,,,,,,,,,,{8}7b-1[48:5]/4b-1[48:5],,7b/4b,
,6/2,6/2,5/4-8[8:1]*-1[8:1],{4},,{48}A3/A7f,
D7/D3,A6/A2,D2/D6,{12}A1/A5,{48},,,,,,,,,,A6f/A2,D7/D3,A7/A3,D8/D4,,,,,,,,,{8}6<1[8:1]/2>5[8:1],,6b/2b,
,3,3,3p7[8:1]*q7[48:5],,,,,1-3-5-7-1[12:5],
1h[4:3],{4},,,{32}2,
3,{16}4h[16:5],,,{8}6,6,6,4,4,6,
4/5,5/4,6,6,3,3,4/5,4/5,
{48}7/2,E8,{24}B8,,{8}3x,4x,{48}2/7,E8,{12}B8,{8}3x,4x,{48}7/2,E8,{24}B8,{48},,,,,,,,2/7,
E2,{24}B1,,{8}6x,5x,{48}2/7,E2,{12}B1,{8}6x,5x,{48}2/7,E2,{24}B1,,,,,{4}Cf,
{8}1h[16:1],1h[16:1],8h[16:1]/2h[16:1],8h[16:1]/2h[16:1],7h[16:1]/3h[16:1],7h[16:1]/3h[16:1],
6h[16:1]/2h[16:1],6h[16:1]/2h[16:1],3h[16:1]/5h[16:1],3h[16:1]/5h[16:1],{2}Cfh[4:1],
{8}2b/8b-5>3<5-8[12:7],2b/8b,,,,,,,{4}6x-3[48:5]/2x-7[48:5],
6/2,{8}1x-5[48:5]/2x-6[48:5],8/3,{4}1/2,
7x-4[48:5]/1x-4[48:5],7/1,{8}6x-2[8:1]/5x-1[8:1],7/4,{4}6/5,
4x<7[48:5]/3x>8[48:5],4/3,{8}8xv5[48:5]/2xv5[48:5],7/3,{4}8/2,
8xz4[48:5]/1xs5[48:5],8/1,{8}7xv4[48:5]/1xv4[48:5],6/2,{4}7/1,
5x/1<7[48:5],5/1>3[48:5],{8}5x/1<7[48:5],5,{4}5/1>3[48:5],
5x/1<7[48:5],5/1>3[48:5],{8}5x/1<7[48:5],5,{4}1b/5,
{16}3,4,3,4,{8}3,5,{16}3,4,3,4,{48}3,D3,A2,D2,A1,D1,A8,D8,{12}A7,
,,,{4}E6f,Cf/B4,E2f/A3/E3,
6-8[48:5]/3-1[48:5],6b/3b,{8}6/2,6/2,7/3,7/3,
{4}1<6[48:5]/5>2[48:5],1b/5b,{8}8/4,8/4,5/1,1/5,
{4}6<1[48:5]/2>5[48:5],2b/6b,{8}6/2,6/2,4/8,4/8,
{4}7>2[8:1]/3<6[8:1],7b/3b,{8}4h[8:1],5h[8:1],3h[8:1],6h[8:1],
{4}1-5[48:5],1<7[48:5],{8}5x/1>3[48:5],5,{4}5/1<7[48:5],
5x/1>3[48:5],5/1b,{8}6/2,4,7/3,2,
{32}7/1,6,5,4,,,,,{8}8,{32}2/8,3,4,5,,,,,{8}1,{32}7/1,6,5,4bh[32:21],,,,,,,,,{8}8,
8,8,{32}8,7,6,5,4,3,2,1,{4}8/Cf,
{8}3,{16}3,4,{8}3,{48}7,E8,{12}B8,{8}3,{48}6,E6,{12}B5,2,{24},{8}2,
6,{16}6,5,{8}6,{48}2,E2,{12}B1,{8}6,{48}3,E4,{12}B4,7,{24},{8}7,
3,{16}3,4,{8}3,{48}7,E8,{12}B8,{8}3,{48}6,E6,{12}B5,2,{96},,,,{32}6,7,{16}8h[16:7],
,,{8}3,3,3,6,{48}2,E2,{12}B1,{48}7,E8,{24}B8,,,,,{8}7b/3b,
6b/2b,{4}1b/5b,{8}3b/7b,3b>8b[48:5]/7b<4b[48:5],,3b/7b,
,A3,E4,B4,B5,E6,{4}A6fh[48:1],
{8}3>1[48:5],4,{4}3x/5x,{8}6<8[48:5],5,{4}6x/4x,
{8}E7h[4:1]/E6h[4:1],3,{4}3,{8}E6h[4:1]/E5h[4:1],2,{4}2,
{8}7<5[48:5],8,{4}7x/1x,{8}2>4[48:5],1,{4}2x/8x,
1>5[4:1],5<1[4:1],1V35[4:1],5-7-1>5[4:1],
{2}Cf,{16}3,5,4,6,3,5,4,6,
3x,4x,5x,6x,3x,4x,5x,6x,3,5,4,6,3,5,4,6,
{2}3b-1[48:5]*-5[48:5],6b-2[48:5]*-8[48:5],
{128}E8f/D8/A8,E2,D2,A1,{16},,,{64},,{8}2b/6b,2b-4-7[4:1]/6b-8-3[4:1],,2b/6b,,A7f/A3f,
,1bx/5bx,1bx/5bx,5bxh[2:3]/1bx-4<5-8>1[8:3],,,,,A1f,
,,3b,,4b,1b,1b,
,E2h[4:7]/B1h[4:7]/B2h[4:7]/6-1[48:17],,,,,,,{4}7,
{8}7,5,,6,7,8,
{32}7>5[48:71],6,{16}5,,,,,,,,,,,,,,,{8}E6,
B6,B7,E8,{16},,,,,,,,2,
1,{8}2,{16}7,8,{8}7,{16}3,4,{8}3,{16}6,5,{8}6,
{16}1,2,3,4,8,7,6,5,{32}1,2,3,4,5,6,7,8,{4}1,
{8}5b<1[0.439##0.439]*>1[0.439##0.439],7b/3b,,5b,,,,,{4}3x-6[48:5]/7x-2[48:5],
3/7,{8}8x-4[48:5]/7x-3[48:5],1/6,{4}8/7,
2x-5[48:5]/8x-5[48:5],2/8,{8}3x-7[8:1]/4x-8[8:1],2/5,{4}3/4,
5x>2[48:5]/6x<1[48:5],5/6,{8}1xv4[48:5]/7xv4[48:5],2/6,{4}1/7,
1xs5[48:5]/8xz4[48:5],1/8,{8}2xv5[48:5]/8xv5[48:5],3/7,{4}2/8,
4x/8>2[48:5],4/8<6[48:5],{8}4x/8>2[48:5],4,{4}4/8<6[48:5],
4x/8>2[48:5],4/8<6[48:5],{8}4x/8>2[48:5],4,{4}8b/4,
{16}6,5,6,5,{8}6,4,{16}6,5,6,5,{48}6,D7,A7,D8,A8,D1,A1,D2,{12}A2,
,,,{4}E6f,Cf/B4,E2f/A3/E3,
8-4[48:5]/1-5[48:5],{48}8b/1b,Cf,,,,,,,,,,,{16}1x,2x,8x,7x,1x,2x,8x,7x,
1x,2x,8x,7x,2x,3x,7x,6x,2x,3x,7x,6x,2x,3x,7x,6x,
2x,3x,7x,6x,2x,3x,7x,6x,2x,3x,7x,6x,3x,4x,6x,5x,
3x,4x,6x,5x,3x,4x,6x,5x,3x,4x,6x,5x,,,,,4,
5,4,5,4,5,4,5,3,6,3,6,3,6,3,6,
2,7,2,7,2,7,2,7,{32}1,2,3,4,5,6,7,8,1,2,3,4,5,6,7,8,
{4}1b-5[48:5],{8}6,6b-1[48:5],,2,{4}2b>7[4:3],
{8},,,,B3,B2,{4}E2,
{32}7x/3x,2/6,{16}1/5,,,{8}1x/5x,{32}1x/5x,6/2,{16}7/3,,,{8}7x/3x,{32}7x/3x,6/2,{16}5/1h[16:15],,,,,{8}5,
5,5,5,5,{4}5b,
{32}8x/4x,3/7,{16}2/6,,,{8}6x/2x,{32}6x/2x,7/3,{16}8/4,,,{8}8x/4x,{32}8x/4x,3/7,{16}6/2h[16:13],,,,,{8}6,
6,6,6b,6b,{32},,,,,,,,1x/5x,
4/8,{16}3/7,,,{8}7x/3x,{32}7x/3x,8/4,{16}1/5,,,{8}1x/5x,{32}1x/5x,4/8,{16}7/3xh[16:15],,,,,{8}7,
7,7,{4}7b,7b,
{32}7/1,6,5,4,,,,,{8}8,{32}2/8,3,4,5,,,,,{8}1,{32}7/1,6,5,4bh[32:21],,,,,,,,,{8}8,
8,8,{32}8,7,6,5,4,3,2,1,{4}8/Cf,
{8}2/6,{16}3,4,{8}3,{48}6,E6,{12}B5,{8}2,{48}7,E8,{12}B8,3,{24},{8}3,
2/6,{16}7,8,{8}7,{48}3,E4,{12}B4,{8}7,{48}2,E2,{12}B1,6,{24},{8}6,
7/3,{16}2,1,{8}2,{48}6,E6,{12}B5,{8}2,{48}7,E8,{12}B8,3,{96},,,,{32}8,7,6,5h[32:13],
,,,,{8}2,3,4,7,{48}3,E4,{12}B4,{48}6,E6,{24}B5,,,,,{8}2/6,
{16}7,8,{8}7,{48}2,E2,{12}B1,{8}6,{48}3,E4,{12}B4,7,{24},{8}7,
6/2,{16}3,4,{8}3,{48}7,E8,{12}B8,{8}3,{48}6,E6,{12}B5,2,{24},{8}2,
7/3,{16}6,5,{8}6,{48}3,E4,{12}B4,{8}7,{48}2,E2,{12}B1,6,{96},,,,{32}4,3,2,1h[32:13],
,,,,{8}6,7,8,3,{48}7,E8,{12}B8,{48}2,E2,{24}B1,,,,,{8}6b/2b,
7b/3b,{4}1b/5b,{8}8b/4b,7b<4b[48:5]/3b>8b[48:5],,7b/3b,
,B7,B2,E6,{4}E4,{8}3/7,{32}7/3,6/2,{16}5/1,
,,1,5,2,6,3,7,4,8,,,{8}8/4,{32}8/4,7/3,6/2,5bh[96:37]/1bh[96:37],
,,,,,,,,,,,,{16}6x/2,7x/3x,{2}8x/4x,
E
