&title=唱
&artist=Ado
&first=0
&des=XXHB
&lv_5=14
&inote_5=(132)
{1}
,
{16}
,,,,,
{32}
,
{128}
,
{1}
Cf,,
{4}
4-8b[4:7],,,,,,,,
{16}
4>2[8:1],,,,7<5[8:1],,,,3>1[8:1],,,,8<6[8:1],,,,4>2[8:1],,3,,
7<5[8:1]/4,,8,,2x/7x,,,,5qq6[8:3],,,,3xh[2:1],,,,,,,,{32}
7x,8x,1x,2x,3x,4x,5x,6x,7xqq6qq5qq4b[4:3],8x,1x,2x,3x,4x,5x,6x,
{16}
Cf/7bx,,,,,,,,,,,,
{48}
A4,E4/E5,B4/B5/B3,B6/B2/C,B7/B8/B1,E7/E2/E8/E1,A7/D8/A8/D1/A1,,,,,,
{16}
4xbh[4:6],,,,,,,,,,,,,,,,5h[16:8],,,,,,,,,5w1[16:1],,,5b,,,,
5>6[8:7],4,7,,5,,,,5,,,,5,,Cf,,5,,
{48}
1x,2x,3x,,,,1x,8x,7x,,,,
2x,3x,4x,,,,8x,7x,6x,,,,
3x,4x,5x,,,,
7x,6x,5xh[48:10],,,,
{16}
C,,
4x-2[12:1],,6,,45,,6,,4-2[12:1],,7,,64,,7,,
8pp6[16:6],,2,8,,,,,3,,4,,3x/5x,,2,,
6-8[8:1],,5,,46,,3,,2V48[4:1],,1,,28,,7,,
6xh[8:1],,4,5xh[8:1],,3,4x,,4xw8[8:1],,,,4b,,,,
{16}
2-4[12:1],,1,,82,,7,,2-5[8:1],,1,,82,,7,,
6xv3[8:1],,,2x,6xbpp7<4[16:4],,4,,6x/4x>1b[8:1]*p8b[8:1],,,,
{32}
E4,E3,E2,E1,,,,,
{16}
6/4x-7[8:1],6xh[16:5]/4x,,,,,,,
5/8x-2-6[16:3],5xh[16:5]/8x,,,,,,,
2v3-5b[16:3]/8x,,,1x,{24}1x-7v6[16:3],,,,,,
{16}
,,,,
{24}4xbqq5[16:6],3x,2x,,,,
{16}
4/7,,6,,7,,8,,
8x-2[16:1]*-6[16:1],,,8x,,,,4,
3<6[8:1],,2,,13,,8,,
7xbh[8:1]/8xb,,5,6xbh[8:1]/4xb,,4,3xb/5xbh[8:1],,2>4[12:1],,1,,2<8[12:1],7,7,,2>8[16:3],5,5,,2x,6x,6x,,1x>3v6>4[12:3],,8,1x/7x,,,,,
8x<2[16:3],,12,,8xb/4xb,,,,
17,,,8,1x/7x,,1x/7x,,
4v3[8:1]/6v7[8:1],,,,4x/6x,,,,
25,,,3,2x/5x,,2x/5x,,
1-5[8:1]/7-3[8:1],,,,1x/7x,,,,
2xh[8:1]/4xh[8:1],,,4xh[8:1]/5xh[8:1],,,5x/7x,,
1xh[8:1]/3xh[8:1],,,4xh[8:1]/5xh[8:1],,,8x/6x,,
1xbqq2>2b[16:8]/8x,,,,1x/5x,,,,{32}E3,E4,E5,E6,E7,E8,E1,E2,
{16}6xb/E3,,,,
Cf,,,,35,,4,,53,,,,35,,2,,3/5h[1:1],,,,2<7>2[16:7],,,,2x,,,,A7,,,,
Cf,,,,64,,5,,64,,,,73,,46,,5h[4:1],,,,8-2[12:1]*v3[8:1],,,,8xb-6[12:1]*v5[8:1],,,,8xb,,,,
2x/4,,1,,2-5[8:1]/4,,1,,2-6[8:1],,8,,2<4[16:6],,7,,2x/8x,,,,8x,,,,8x,,3,,2x-5-8-3b[2:1],,6,,7x,,,,7x,,,,7x,,,,7x,,E1/B1/B8/E5/B5/B4,,E3/B2/B3/E7/B7/B6/Cf,,,,
{64}1x,B1,,,{16},
{64}5x,B5,,,{16},
{64}3x,B3,,,{16},
{64}7x,B7,,,{16},
{16}
1xh[32:1],,1xh[32:1],,
1/4bv1b[8:1]*<7b[8:1],,,,4x,,,,
2/4v1[8:1],,18,,4x/6,,8,,
24,,18,,7xv4[8:1]/5x,,18,,5<3[16:3]/7,,8x,,
{48}
5x/E6,E7,E8,E1,E2,E3,,,,,,,
{16}
4xb/6,,18,,3/5x,,18,18,6x/5x,,13,,7x/8x,,24,,
5x>2[16:2]/6x,,18,,{32}5x/7/E5,E4,E3,,
{16}
,,
1b/8b<3b[16:2],,7b/5b,,
{48}
3b/8b/E1,E8,E7,E6,E5,E4,,,,,,,
{16}
1<6b[8:1]*p5b[8:1]/2,,,,1b,,,,
3/4>1[8:1],,18,,7/4x,,6,,5x/3,,78,,6qq5<8[16:4]/4x,,12,,4x/6x,,1x,1x,1,,2,,3x/5,,28,,6x/4,,1x/7x,17,3xb/4x,,7b/8,,5b/6,,1b/2,,
3p6[16:2],,4,,5,,,,
3xb>6b[16:2]/5xb,,1/8,,
{32}3b/5b/E3,E2,E1,E8,
{16}E7f,,
5x/3,,1,,3x/5h[8:1],,8b,,5h[8:1]/3x,,2,2,3x/5h[16:2],,4b,,
3h[8:1]/5x,,6,,3x-1-7b[16:3]/5x,,6,,3x/4v6[8:1],,5,,1x-7-5-3b[16:3],,2,,3x,,2,,
1h[8:1]/7x,,4b,,1h[8:1]/7x,,8,8,7x/1h[8:1],,{48}
E3,B3,B4,B5,B6,E7,
{16}
7x/1,,3,,2xq7[16:2]/8,,6,,Cf,,,,
{32}
1x/8x,7x,6x,5x,4x,3x,2x,1x,
{16}
8x/4x,,3,,8h[8:1]/2x,,5b,,8h[8:1]/2x,,1,1,8h[8:1]/2x,,3,,8h[8:1]/4qq5[16:6],,,,7h[8:1],,,,
6h[8:1],,,,
5xh[8:1]/3x,,2,,4h[8:1]/6x,,7,,
4h[8:1]/6x,,7,7,4/6x-1[8:1],,3,,2x/6x,,3,,
4x>5[4:1]/5x,,6,,7/4x,,,,
{32}
E5,E4,E3,E2,E1,E8,E7,E6,
{16}
E5f/8x,,,,
5/6pp5[2:1],,,,4,,3,,2x,,,,2,,3,,3h[16:1]/4h[16:1],,
4h[16:1]/5h[16:1],,6h[16:1]/5h[16:1],,4h[16:1]/5h[16:1],,
3x/4pp4qq4b[2:1],,3x,,2xh[8:1],,,,2xb,,,,
1,,2,,4/3xp6[8:1],,,,6,,5,,
4xpp4[4:1]/3x>8b[8:1],,,,3b,,,,8x,,1,5,2,6,3,7,
8xh[16:1]/4xh[16:1],,8h[16:1]/4h[16:1],,1xh[16:1]/5xh[16:1],,1h[16:1]/5h[16:1],,
{48}
E1/1x,B8,B7,E7,,,E5/5x,B4,B3,E3,,,
{16}
5x,2x,5xh[4:1],,
6xp1[4:1],,7x,,8xh[16:1],,7xh[16:1],,6xh[16:1],,
{48}
1x/E2,B2,B3,E4,,,5x/E6,B6,B7,E8,,,
{16}
8xb/4xb,,1b/5b,,C,,{48}E2/E6,B1/B5,B8/B4,E8/E4,,,
{16}
1x/5x,1x/5x,,2x/6x,26,,3xpp3[4:1]/7xpp7[4:1],,,,
7x<3pp6b[16:8]/3x>7pp2b[16:8],,,,,,A7/A3,,,,,,,,
,,
5,3,6,4,7,7h[8:1],,
5,7,4,6,3,5,2,2h[8:1],,
{16}8,{48}8x/E3,B3,B4,,,,
{16}7,{48}7x/B2,C,B6,,,,
{16}8,{48}8x/E3,B3,B4,,,,
{16}
8,4,7,3,,15,,
6x/5x,,3x,2x/4x,,6x,7x/5x,,3x/4x,2x/4x,,6x/5x,7xh[4:1]/5x,,
,,8x,4,1,5,2,6,3,7,4x,8x,5x,1x,Cf,,,,
7xb,7xqq8[16:3],3,6,4,7,,,
2xb,2xpp1[16:3],6,3,5,2,,,
{16}8,{48}8x/E3,B3,B4,,,,
{16}7,{48}7x/B2,C,B6,,,,
{16}8,{48}8x/E3,B3,B4,,,,
{16}
8x,4x,7x,3x,,1x/5x,,
2b/4b,,5xb/6xb,4xb/7xb,,4xb/3xb,5xb/2xb,,
5xb/6xb,8xb/4xb,,4xb/3xb,
1x<2b[16:3]/5xb,,,,
{32}
1x/E2/5x,E1,E8,E7,E6,E5,E4,E3,
B1,B8,B7,B6,B5,B4,B3,B2,
{16}
Cf,,,,
{1}
,
{8}
,
{24}
3x,4x,5x,6x>3[4:3],,,
{16}
,,
{4},,,
7<2[4:3],,,,
8<1[4:3],,,,
4z8b[4:2],,,,
3x<6[4:3],,,,
2xqq7[4:3],,,,
4x>5b[4:3],,Chf[2:1],,
{16}
,,3,,2,,1,,
8xw4[8:1],,,,8b,,,,
6h[2:1],,,,,,{32}
1x,2,3,4,
{16}
5xh[4:1],,6,,7,,8,,1<7v2[16:4],,2,,1x/5qq6[16:4],,4,,5x,,,,
7x>2[8:1],7xh[16:3],,,,,,,
6xv3[8:1],6xh[16:3],,,,,,,
3x-5[12:1],6,2,,3x/7-4[8:1],,6,,7x>2[16:2],,3,,4bv7[8:1]*p8[8:1],,,,4,,,,
3h[2:1],,,,,,{32}
8x,7,6,5,
{16}
4xh[4:1],,3,,2,,1,,8<6v1[16:4],,1,,8x/4>2v5[16:4],,5,,4x,,,,
6x<2[8:1]*q2[8:1],6x,,,,,,,
6x<2[8:1]*v3[8:1],6x,,,,,,,
{48}
6xqq3b[16:14],D7,A7,D8,A8,D1,A1,D2,A2,D3,,,
{4}
,,,,
{16}
8bp4b[8:1]/3b>8b[8:1],,,,3x/8x,,,,
6/8p4[8:1],,53,,8x/2,,1,,
24,,18,,5xp1[8:1]/7x,,81,,6<4[32:5]/5,,8x,,
{48}
6x/E7,E8,E1,E2,E3,E4,,,,,,,
{16}
8xb/2,,54,,7/1x,,53,53,2x/1x,,57,,3x/4x,,68,,
1x<5[16:2]/2x,,54,,{32}1x/3/E1,E8,E7,E6,
{16}
,,
5b/4b>7b[16:2],,3b/1b,,
{48}
7b/4b/E5,E4,E3,E2,E1,E8,,,,,,,
{16}
5>2b[8:1]/6p1b[8:1],,,,6b/5b,,,,
7/8<5[8:1],,54,,3/8x,,2,,1x/7,,34,,1qq8>5b[32:9]/8x,,24,,1x/6x,,
{48}E8,E1,E2,E3,E4,E5,{16}
6x,,7,,8x/2,,35,,7x/1,,4x/6x,46,3xb/1x,,6xb/8x,,2xb/4x,,7xb/5,,
1x/8,,2x/1,21,3x/8x,,7x/8,78,6x/2x,,3x/1,31,4x/7x,,6x/8,68,5x/2x,,
{32}
1xb/8x,2,3x,4,5x/6x,,,,
8xb/1x,7,6x,5,4x/3x,,,,
8xb,7x/1x,6xb/2xb,5x/3x,4xb,,,,
1xb,2xb/8xb,3xb/7xb,4xb/6xb,5bh[16:7],,,,,,,,,,,,1x,2,3,4,
{12}
5x/6,57,58,1V35b[8:1]*V75b[8:1]/4,13,12,
{16}
,,,,
8b,,,,
6x-1[8:1],,,4x,6-2[8:1],,3,,4x-1[8:1],,3,,5x-8[8:1],,6,,2x-6[8:1],,,5x,2x-4[12:1],,8x,,
2x,,,5,
5-7[12:1],,1-3[12:1],,5v8[8:1],,1v4[8:1],,5x,,1x,,8xb,,7b/5b,,2b/4b,,1b/8b,,4xh[8:1]/5xh[8:1],,
{48}B5/B4/E5,C/B3/B6,B7/B8/B1/B2,E1/E2/E8,D8/D1/D2/8xb/1xb,,
{16}
,,,,3x-8[8:1],,2,,4x-7[8:1],,5,,1x-5[8:1],,,6,1,,7,,
E6/B6/E7/A6/D7/D6,,,
D5/E5/A4/B4/D4/E4/A3/B3/D3/E3,,,
D2/E2/A1/B1/D1/E1/A8/B8/D8/E8/A2/A7/Cf/B7/B2/E3/E7/B3/B6,,,,
65,,45,,34,,1x/2,,18,,7x/8,,{32}1/8x,7,6x,5,3x/4,,,,{16}18,,5/6x,,18,,
2/5qq4[8:1],,6,,,,,,
5x<2b[16:3],,3,,,,,,A4,,,,,,,,
