&title=Access Granted
&artist=LUNARIUM
&first=0.141
&des=墓
&lv_5=14
&des_5=墓
&inote_5=
(170){4},,2>7[2:1],1,
7<2[2:1],8,2>7[2:1],1,
7,{8}8,7,{4}6V83[2:1],4,
3V16[2:1],5,6<3[2:1],4,
3,{8}1,1,{4}5/3qq4[8:3],7,
5pp4[8:3],1,2pp8[4:1],8,
7,{8}6,{16}3,3,{4}4<7[4:1],1,
4>1[4:1],7,8<5[4:1],1,
{8}3,{16}4,4,{8}5,{16}6,6,{8}5,{16}6,5,{8}7,{16}6,5,
{8}6,{16}7,5,{8}8,8,8/1,{16}3,4,{8}2,{16}2,1,
{8}3,{16}3,4,{8}3,5h[16:1]/4h[16:1],4/5,{16}6,5,{8}B6,{16}3,4,
{8}E2,{16}6,5,{8}8xh[8:1],1xh[8:1],8bx,{16}2,1,{8}3,{16}7,8,
6,5,,7/1,,,2,3,{8}4/7-5[8:1],7x,4-2[8:1],4x,
8-6[8:1],8,5-3[8:1],5,1<6[8:1],8,2>5[8:1],3,
7,7,8<5[8:1],{16}1,1,{8}8,2,3,7/8,
{16}1,8,1,8,3,6,4,5,{2}1b<1[4:1],
{32}8x,7x,6x,5x,4x,3x,2x,1x,{8}8x,{16}4,4,{8}6,6h[8:1],{16}4,5h[8:1],,3,
{8}4h[8:1],{16}2,3h[8:1],,1,{8}8h[8:1],2,2h[8:1],{16}8,1h[8:1],,7,
{8}8h[8:1],{16}7,5h[8:1],,6,{8}4b,7,7,{16}4,6,3,5,
{8}3h[8:1],{16}4,2,4,2,{8}5h[8:1],1,1,{16}2,8,2,8,
{8}3h[8:1],6h[8:1],{16}5,7,,7,{8}4,4b,{16}6,5,,3,
{8}4h[8:1],{16}2,5,2,5,{8}3h[8:1],7,6h[8:1],{16}8,7h[8:1],,1,
{8}8h[8:1],2,6/4,{16}3,3,{8}8,8,7<4[8:1],{16}6,6,
{8}3-8[8:1],2,7,7,{16}6,4,5,3,7,5,6,4,
{8}8<5[8:1],2,8,1,{16}8,8,8,8,{4}8b,
{8}7,7,5,6/4,2-6[8:1],{16}6,6,{8}2>4-8[16:3],8,
{4}2/7,{8}6,6,7/5,7/5,{16}4,6h[8:1],,3,
{8}5h[8:1],{16}2,4h[8:1],,3,4,2,{8}5x<1[4:1],7x>1b[8:1],1V74[4:1],2,
{4}3-8b[8:1],3,1-5[8:1],1/6-1[8:1],
6/3-7[8:1],3/8<5[8:1],8/4-8[8:1],4/6-3[8:1],
{8}6/1-5[8:1],8,7-3[8:1],8,7-4[8:1],2,7,3,
{16}1,1,8,8,3,6,4,5,{8}1,1,{16}7/3,7/3,,4h[8:1]/8h[16:3],
,,,,{4}5s1b[8:1]/4z8b[8:1],{2}5/4,
{4},,,,,,5h[8:1]/4h[8:1],
{8}7<4[8:1],5h[8:1],
,1,2>5[8:1],8,7h[8:1],,,6,
{4}6h[4:1],5,{8}3>8[8:1],5,,6,
4>1[8:1],5,7,7h[8:1],,,6,5,
{4}4h[4:1],3h[4:1],{8}2<7[8:1],3,,5,
6<1[8:1],4,,2,3,8,7,6h[16:1],
{16}2,3,{8}4h[8:1],{16}8,7,6,5,{8}2,{16}6,6,{8}3,4,
7,{16}3,3,{8}8,8,{4}1>4[4:1],8,
{8}7,7,6,6,1,{16}3,3,{8}6,5,
{4}5<8[4:1],{8}1,1,,,,2,
{4}2,7,{8}3,{16}6,6,{8}3<5[8:1],3h[4:1],
,,3>8[8:1],2h[4:1],,,3,4,
5,6,7,7,8/6,{16}1,1,{8}7,7,
6/4,{16}5,5,{8}3,3,2,1/2,8/1,{16}7,6,
{8}5h[8:1],{16}1,2,3,4,{8}5,{2}6/5,
{8},,,,,,,,,,,,5/4,
{16}4,5,,5,,4,
{8}5,5,{16}4,5,,5,{8}4,{16}5,4,,5,,4,
{8}5,5,{16}4,5,{8}4,4,{16}5,4,,5,{8}4,
5,5,{16}4,5,4,5,,,{8}4/5,{16}4,5,,5,
{8}4,{16}4,5,,4,5,4,{8}5,{16}4,5,,5,,4,
,4,5,4,,5,4,5,,4,,5,,4,{8}5,
{16}5,4,,4,5,4,,5x/4x,,,{8}6,{16}6,5,,5,
,5,{8}6,6,5,{16}6,5,{8}6,{16}2,1h[8:1],,3,
{8}8h[8:1],{16}4,7h[8:1],,5,{8}6h[8:1],{4}1-5[8:1],1/7-3[8:1],
7/2-5[8:1],2/8-5[8:1]*<5[8:1],8b-3[8:1]*>3[8:1],8b-4b[8:1],
8,{8}1,8/2,{4}3/7-4[8:1],7/2-5[8:1],
2/8-4[8:1],8/1-3[8:1]*-4[8:1],1b-6[8:1]*-7[8:1],1b-5b[8:1],
1,{8}8,1,{4}2-5[8:1],2-8[8:1]/7-3[8:1],
2/7<4[8:1],2-5[8:1]/7-3[8:1],7/2,1,
{8}7/8,6,1/2,3,8,8,8,8/1,
{16}2,7,2,7,3,6,4,5,{4}1-6[8:1]*-4[8:1],B7/B3/Cf,
{2}2qq3<4[4:1],{8}6,6,{16}7b,5,,3,
{8}4,{16}2,1,{8}3,8/1,3,3,{16}7,5,6,5,
{8}7,{16}3,4,,4,{8}2,6,6,{16}3b,5,{8}4,
7,{16}6,5,,5,{8}8,7/1,7/1,{16}2,4,3,5,
{8}4h[8:1],{16}7,7,{8}1,2,6,6,{16}3,4,,5,
{8}4,{16}2,4,{8}2,5/3,4,5,{16}3,3,{8}8,
{16}8,1,,1,6,5,{8}7,3,3,{16}8,2h[8:1],,7,
{8}1h[8:1],6,{16}7,8,{8}7,6,1/8,{16}7,5,,2,
{8}4,{16}5,5,{8}3,4/6,7b,7,{16}5,6h[8:1],,4,
{8}5h[8:1],{16}3,4h[8:1],,1,{8}1b,8,8,{16}7,3,7,4,
{8}6h[8:1],{16}5,7h[8:1],,4,{8}8,1b,1,{16}4,2,4,2,
{8}5h[8:1],{16}1,8,2,7,{8}3h[8:1],6b,7/8,{16}2,1h[8:1],,4,
{8}6h[8:1],{16}5,7,5,6,{8}4,7/1,7/1,{16}2,4,3,5,
{8}4h[8:1],{16}7,7,{8}1,2b,1/8,1/8,{16}7,5,6,4,
{8}5h[8:1],{16}2,2,{8}7,6b,2,4/3,7,6/5,
{16}3,6,4,5,1,1,8,8,{4}1h[4:3],5z1[8:1],
{32},,,,,,,,,,,,,,,,1b/8b,2x/7x,3x/6x,5x/4x,,,,,{16}2x/8x,3x,4x/8x,5x,
7x/1x,6x,5x/1x,4x,{8}2,2,8/7,{16}7,5,{8}6,{16}2,4,
{4}3-7[8:1]*-8[8:1],3,{8}6,{16}6,5,{8}7,7,
{16}2,1,2,1,3,4,3,4,2x,1x,8x,7x,8x/5,1x,2x,3x,
{4}4x-8[8:1]/8x-4[8:1],C,{8}2,{16}7,6,{8}5/1,{16}2,3,
{8}5/4>1[8:1],{16}6,7,{8}8,8,7v4b[8:1],4<7[8:1],7>2[8:1],2,
{2}2w6b[8:1],{8}1,{16}7,5,{8}6,6,
{16}3,4,2,4,{8}1,1,5<8b[8:1],8<5[8:1],5-1[8:1],2,
{2}1<6[8:1]*>4[8:1],{4}1-5[8:1],1/7-3b[8:1],
7/2-5[8:1],2/8-5[8:1]*-6>5[8:1],8b-3[8:1]*-2>3[8:1],8b-4b[8:1],
8,{8}1,8/2,{4}3/7-4[8:1],7/2-5[8:1],
2/8-4b[8:1],8/1-3[8:1]*-4[8:1],1b-6[8:1]*-7[8:1],1b-5b[8:1],
1,{8}8,1,{4}2-5[8:1],2-8[8:1]/7-3[8:1],
2/7-5[8:1],7-3[8:1]/2-6[8:1],7/2,1,
{8}7/8,6,1/2,3,8,8,8/1,8/1,
{16}2,7,2,7,3,6,4,5,{4}1h[16:3],{16}1/5,2/6,3/7,4/8,
{4}5>2[8:1]/1<6[8:1],1/5s1[8:1]*z1b[8:1],{2}5,
E
