&title=[创作谱面]Beat Opera op.1
&artist=bermei.inazawa
&first=1.05
&des=捱思北塔
&lv_6=14+
&des_6=捱思北塔
&inote_6=
(145){16}5/6h[16:3],{8},{16}1,{8},2h[4:1]/4-8[8:1],,4,{16}3,3,5,5,
4,6,5,6,8,6,5,6,{4}4pp8[4:1],{8}3,2,
{16}1>7[16:7],{8},{16}1h[16:9],{8},,,,,2,
{16}3/5<3[16:7],{8},{16}3/5h[16:9],{4},,,{8}5/7h[8:1],
{16}8,6,{8}2,4h[4:1]/3-8[8:1],,3,{16}7,7,8,6,
{8}1>4[12:1],{16}4,4,{8},{16}6,5,{8}8<5[12:1],{16}4,4,{8},{16}3,4,
{8}2>5[12:1],{16}1,1,{8},{16}8,6,{8}7<4[12:1],{16}1,1,{8},{16}2,3,
1>4[8:1],{8},{16}5<8[8:1],1v6[8:1],{8},{16}5v2[8:1],1>4[8:1],{8},{16}5,{4}1b,
{16}8b,{8},{16}6/2>5[8:1],,6,7,8,1<6[8:1],{8},{16}4,{8},{16}3,2/5,
4/1-5[8:1],{8},{16}4,,6,7,8,1/5,6,7,8,1/5h,2,3/7h,4,
5/1<6[8:1],{8},{16}5,{8},{16}4,3,2<7[8:1],{8},{16}6,{8},{16}5,4,
3<8[8:1],{8},{16}8,,1,2,3,4/1,2,3,4,5/1h,6,7/3h,8,
1/5>2[8:1],{8},{16}8,{8},{16}7,6,5/1>4[8:1],{8},{16}6,{8},{16}7,8,
1/5>8[8:1],{8},{16}8,,7,6,5,4/7,6,5,4,3/7h,2,1/5h,8,
{4}7/3<6[8:1],{16}8,1,{8}2h[8:1],{16}7,8,{8}1,{16}6,7,8,1,
2/6-1[16:1],{8},{16}6,2-5[16:1],{8},{16}2,8-4[8:1],7,{8}6,{16}5,6,7,8,
(147)1bqq6[4:3],{8},{16}2,{8}1,3,{16},4,{8},5,4,
{16}3qq8[4:3],{8},{16}4,{8}3,5,{16},6,{8},7,6,
{16}5qq2[4:3],{8},{16}6,{8}5,7,{16},8,{8},1,8,
{16}7qq4[4:3],{8},{16}8,{8}7,1,{16},2,{8},3,2,
{16}1-5[8:1],{8},{16}6,{8}1,{16}7,7,6,6,5,5,{8}7h[8:1],{16}6,6,
5,5,7,7,{8}8h[8:1],{16}5,5,6,6,7,7,{8}8h[8:1],{16}6,6,
1,1,1,1,7,7,7,7,2-5[8:1],{8},{16}7-1[8:1],2,{8},{16}7-4[8:1],
3-8[8:1],{8},{16}7,3-5[8:1],{8},{16}6-1[8:1],3-7[8:1],{8},{16}6,3>4[2:1],{8},{16}5,
{2}3b,{8}1,8,7,6,
{16}5/4<2[2:1],{8},{16}3,{8},3,{16},3,{8},3,4,
{16}6/5>7[2:1],{8},{16}6,{8},6,{16},6,{8},6,5,
3/4,1/2,8/7,6/5,{16}3,4,2,5,1b/6,1b/6,1b/6,1b/6,
(148){1},
(149){8}4/3,{4},{8}7/6,,,,1/2,
{2},{4}4/3,5/6,
{8}1/8,{4},{8}7/6,,,,4/3,
{2},{4}5/6,8/1,
{8}3/2,{4},{8}5/4,,,,8/7,
{2},{4}2/3,5/6,
(148){8}1/2,1/2,,7/8,,5/6,,2/1,
,3,4,5,7/6,8/1,{4}2-5[8:1]/3-5[8:1],
2b/3bv8[8:1],{8}3,7,{4}5/1<6[8:1],{8}4/1-5[8:1],3,
{4}1V37[8:1],{8}1/4V25[4:1],4,{4}4/5-1[8:1],7-4[8:1],
7/1-6[8:1],{8}1/3-7[8:1],4,{4}3-5[8:1],{8}3/8-3[8:1],8,
{4}4<7[8:1],{8}4/2p6[8:1],1,2/5p1[8:1],4,{4}5/7-3[8:1]*-4[8:1],
7b,{8}2-5[8:1],4,{4}2/6<1[8:1],{8}6/5v8[8:1],2,
{4}3/5>2[8:1],{8}7/5<8[8:1],6,3/5v2[8:1],4,{4}5/7-3[8:1]*V14[8:1],
7,{8}2-5[8:1]/5-8[8:1],4/3,{4}5/2<7[8:1],{8}2/6,5,
3/4,{16}2,5,{8}4/3,{16}1,6,{8}4/3,{16}8,7,3/4,2,6,8,
{1}4bV61[1:3]/3b<2[2:7],
,,,{8}3,
4,5,6h[8:3],{2},{8}2,
3,4,5h[8:3],{2},{8}6,
5,4,3h[8:3],{2},{8}7,
6,5,4,5,4,3,2h[48:29],
{2},{6}6/1h[48:7],2h[48:7],{24}3h[48:7],5,{12},{6}2h[48:7],
1h[48:7],{24}2h[48:7],7,{12},{6}5/3h[48:7],2h[48:7],1h[48:7],
6/2h[48:7],{12}3h[48:7],4,{6}2h[48:7],{24}5/1h[48:7],{12},{24}8,{6}2h[48:7],{24}3h[48:7],4,{12},{6}2h[48:7],
1h[48:7],{24}2h[48:7],6,{12},{6}1h[48:7],{12}8h[48:7],5,{24}7h[48:7],4,{12},{8}3/8h[48:7],
{24}5,1h[48:7],,{12}4,{24}8h[48:7],3,{12},{6}2/7h[48:7],6h[48:7],{24}5h[48:7],1,{12},{6}6h[48:7],
7h[48:7],{24}6h[48:7],4,{12},{6}5h[48:7],6h[48:7],7h[48:7],
8/6h[48:7],{12}5h[48:7],2,{6}6h[48:7],{24}4/7h[48:7],{12},{24}2,{6}6h[48:7],{24}5h[48:7],1,{12},{6}6h[48:7],
{24}7h[48:7],8,{12},{6}6h[48:7],5/1,{12},{4}5/1,
{8}5/1,4/3,{4}1<6[8:1]/2p6[8:1],2b/1b-4[8:1],{8}1/5-2[8:1],7,
{4}1/5-8[8:1],{8}5/1<6[8:1],3,{4}1/4-7[8:1],{8}4/1-5[8:1],3,
5/1,{16}4,3,{8}6/2-6[8:1],8/1,{4}2/7-4[8:1],{8}7/5<8[8:1],3,
5/1-5[8:1],2,1/6-8[8:1],7,6/4-2[8:1],{16}3,1,{8}4-6[8:1],{16}5,7,
{8}4-8[8:1],{16}1,2,{8}3/4<7[8:1]*>1[8:1],{16}2,3,{4}4b,{8}8-3[8:1],6/5,
{4}8/2v5[8:1],{8}2/4>1[8:1],6,{4}4/8<5[8:1],{8}8/2-6[8:1],3,
2/4-8[8:1],5-7[8:1],4>1[8:1],5,{4}4,{8}8-5[8:1],6/7,
{4}8/4-7[8:1],{8}3/4,2,{12}8/1b,2,6,7/5b,4,8,
2b/5,1,6,3b>8[8:1]/7<4[8:1],{6},{4}7b/3,{8}5/6-1[8:1],7,
{4}6/2-5[8:1],{8}6/2-8[8:1],6,{4}2/7-3[8:1],{8}7/1>4[8:1],2,
1/5,{16}6,7,{8}8-5[8:1]/5-8[8:1],7/6,{4}8/5,{8}4/1-4[8:1],2,
1/5-8[8:1],6,5/2-4[8:1],1,2/5-7[8:1],{16}6,2,{8}5-3[8:1],{16}4,8,
{8}5,{16}8,7,6/5-1[8:1],4,3/7,6,{4}5b/4b-8[8:1],{8}4/7-3[8:1],6,
{4}7/1>4[8:1],{8}1b/5b-1[8:1]*-7[8:1],6b,{4}5,{8}2v5[8:1],3,
(140)2/6<1[8:1],7,6/5,3,{12}5/2bp6[8:1],3,4,2,5,5,
6/4bp8[8:1],2,5,4,7,7,1/6bp2[8:1],3,8,6,7,7,
1/8bp4[8:1],2,6,8,{3}5h[96:37],{12},{32}3/6,4/7,{16},,,,,,,2,
4,1,7,5,6,2,8,{24}3,4,3,5,4,5,
3,4,3,5,4,5,2,4,2,6,4,6,2,4,2,6,4,6,1,4,1,7,4,7,
{4}1pp3[16:1],{48}6b,7b,{24}8b,
E
