&title=Glaciaxion
&artist=SunsetRay
&first=-1.53
&des=Cactus in the Snow Desert
&lv_5=14
&inote_5=(70){4},,,,{2}Cf,
{4}3h[4:1],5h[4:1],
4h[4:1],6h[4:3],,,1-4<5qq3[8:5],
1/3,2,4h[2:1],
1bx,8h[4:1],7h[4:1],{16}6h[4:1],{64}E2,E3,E4,E5,E6,E7,E8,E1,{16}E2,
{4}8xV25[32:3],8/3,{8}1V74[32:3],2,{4}1/3,
7q4[32:3],1/7,{16}2/7,{32}6,6,{64}1x,2,3,4,5,6,7,8,{16}1bx/5bx-1[32:1],{32}3,3,{64}8x,7,6,5,1x,2,3,4,
{16}5x,,,8/4,{4}6/2-6[16:5],2h[4:1]/7h[2:1],Cf,
1bx,2>5[8:1]/8<5[8:1],{16},,,,4bx/7bx,5,{8}1bx/6bx,
{4}7/3-6<2[8:1],2bx,5-2-4-8[8:1],7bx,
{64}8b/1bxw5[16:1],2,3,4,5,6,7,8,{8}1/6,{4}1b,{8},1/7,{4}3bx/5bx-3-6-2-7-1b[16:5],
,3bx,{8}5/4,4/5,{4}3bx-8[32:1]/6bx-1[32:1],
,3b/6b,1/8-2-6-4[16:3],{16}8bx/4bx,3,{8}2bx,
{2}Cf,{8}B3/E4,C,{16}B6/E6,B5,{8}B4,
B8/E1/B1,B6,B8/E1/B1/B5,{16}B4,B3,{8}B8/E1/B1,Cfh[8:1],{4}B5/B4/E5,
{64}4x/5x-1[24:1],6,7,8,1,2,3,4,{32}5x/1,2,3,4,{8}5b>2[24:1],{32}1,8,7,6,{8}5b<8[24:1],{32}1,2,3,4,{16}5b,2x,3x,4x/8xh[16:3],
{64}3bx,2,{32}1,{64}7,6,5,4,{16}3xh[8:1],8,7b,6h[16:1],{32}1-5[24:1],8,2,7,3x,6x,4x,5x,{8}1x>4[24:1]*<6[24:1],{16}3bx/7bx,2x/8x,{8}1bx,
3bxh[16:1]/6bxh[16:1],{32}1,8,1,8,2b<5[32:3],7,2,7,3,6,3,6,{8}2bx,{32}8,3,8,3,{16}1b-5[16:1],2-4[16:1],8-6[16:1],3b,
1,2,{8}8,{16}1b>3-7-5[16:3],{64},,,,,,,,1x,8x,1x,8x,{4}1x,{16}7b,{128}E2,E3,E4,E5,E6,E7,E8,E1,E2,E3,E4,E5,E6,E7,E8,E1,{32}E2,Cfh[32:1],
{2}B5/B4/B6/B3/A3/A6/A4/A5,{4}5,6,
8,1,{32}3<2[32:7]*-5-7-1[16:3],{64},,,,,,,,,,,,1,2,{4}3,
{2}Ch[1:1],{8}4,3,2,1,
{4}8h[8:3],2h[8:3],4h[8:3],1h[8:3],
7h[8:3],5h[8:3],2h[8:3],4h[8:3],
1h[8:3],7h[8:3],{16}6,{32}6,6h[32:9],,,,,{4}1h[8:5],
{16}4,{32}4,4h[32:17],,,,,,,,,,,,,{4}5h[8:7],{8}8b,{64}E1,E2,E3,E4,E5,E6,E7,E8,
{4}E1f,2h[8:3],6h[8:3],3h[8:3],
1h[8:3],7h[#0.8571396],{64}6h[8:5],E8,E1,E2,E3,E4,E5,E6,E7,E8,E1,E2,E3,E4,E5,E6,{4}E7f,
4h[8:3],2h[8:3],8h[4:1],{64}7h[8:5],A1,A2,A3,A4,A5,{32}A6,{64}A8,A1,A2,A3,{16}A4,
{2}8xh[8:7],{64}6xh[8:3],{4},{16},,{64}A5,A4,A3,A2,A1,A8,A7,
{8}3x/A6f,2x/7x,{4}1x>7b[16:3]/8x<2b[16:3],1bx/8bx,8b/1b-6[16:1],
{8}1b/6b-3[16:1],5b,{4}6b/3b-8[16:1],3b/8b-5[16:1],8b/5b-1[16:5],
{32}5bh[4:1]/7x-3b[32:3],6x,,4x,3x-7b[32:1],2x,1x-5[32:1],8x,{16}7bxh[16:1]/Cf,Cf,Cf,Cf,8bxh[16:3],,,1x,{8}2b/7b,{96}6,7,8,1,,,,,,,,,{4}3>8[12:1]/4<7[12:1],
3b/4b,{8}6<1[12:1]/5>2[12:1],6/5,{4}6b/5b,
{32}7/4,6,5,4,3/8,2,1,8,{96}1b/7,2x,3x,4x,,,7b,6x,5x,4x,,,3b,4x,5x,6xh[32:7],,,,,,,,,{4}2b<7b[16:1],2b/6p3[32:5],
6/4qq1[32:5],4/7p5[32:5],{8}7/2qq7[32:5],B4/E4/B3,{4}2/5pp5[32:5],
{8}5/3p8[32:5],B1/E2/B2,{4}3/8w4[8:1],A8f,{24}3,3,3,6,6,6,
{4}5x/4b>7[32:3],4/5b<2[32:3],{16}5/3b>6[32:3],,,4,{4}3/7b-3b[16:1],
{12}7/1bs5[32:1]*z5[32:1],2,{48},8,1,8,{16}1,B7/B8/B1/B2/Cfh[16:1],{8}B6/A6/A5/B5/A4/B4/A3/B3,{64}2bx,3x,{32}4x,{64},,,,,,,,,,,,7bx,6x,{32}5x,{64},,,,,,,,,,,,3bx,
4x,{32}5x,{64},,,,6bx,5x,{32}4x,{96},,,,,,1b,2x,3x,4x,,,7b,6x,5x,4x,,,2b,3x,4x,5x,{16},,,{64},{192},{96}7b,E7,E6,A5,,,,,,,,,2b,E3,E4,A4,{16},{64},{192},{128}8b,B8,C,B4,{32}A4,{128}1b,B1,C,B5,{32}A5,
,,,,,,,,{8}4bx/5bx,{16}2bx/1bx,8bx/7bx,{48}1,2,3,4,5,6,2,3,4,5,6,7,{16}4h[16:3]/8xV64[12:1],1x,1x,1x,
8/3V17[12:1],2,1b>5[12:1],8/2,{32}3/6>6b[16:3],6x,,,6b,7x,{16}8x,{4}Cf,{16}3bh[32:1],1bh[32:1],7bh[32:1],5bh[32:1],
3h[32:1]/4h[32:1],5h[32:1]/4h[32:1],6h[32:1]/5h[32:1],1h[32:1]/3h[32:1],1h[32:1]/8h[32:1],8h[32:1]/6h[32:1],1b/8b,1b/8b,{8}3bh[16:1]/6bh[16:1],{32}1,8,2,7,3,6,4,5,3,6,2,7,
{16}8b-4[16:1],3/4-1[16:1],2/1-5[16:1],6/5-8[16:1],{4}7h[16:3],{64}6b,5,4,3,2,1,8,7,{32}2,2,5,5,{64}1b,2,3,4,5,6,7,8,7x/1s5[32:1]*z5[32:1],6,5,4,3,2,1/3,8/4,
{4}7bx/5bx,{64}1b/5b-1b[24:1],2,3,4,5,6,7,8,{96}1b,2,3,4,5,6,7,8,1,2,3,4,{2}5b/Cf,
{4}4,5,2,1,
{48}8<5[8:1],1,{24}8,{4},{16},,{96},1,2,3,{2}4,
E
