&title=私は、わたしの事が好き
&artist=HoneyWorks /辉夜姬(CV:夏吉优子)
&first=0.081
&des=A
&lv_5=13+
&des_5=A
&inote_5=
(193){4},D6/E6/A6,E2/D2/A2,D8/E8/A7,
Ch[4:1],{8}6,7,{4}8<5[4:1],{8}3,2,
{4}1>4[4:1],{8}5,6,7,5b,8,8,
{4}6/5,{8}3,2,{4}1>4[4:1],{8}6,7,
{4}8<5[4:1],{8}4,3,2,4b,1,1,
{4}3/4,{8}8,4,{16}3b/8<5[4:1],,,1,{8}8,2,
2,3/2,1,5,{16}6b/1>4[4:1],,,8,{8}1,7,
7,6/7,1bx/8bx,2,2,7,{16}7,3,6,3,
6,4,5,4,{8}5,{16}3,4,{8}2,5,6,{16}4,5,
4,5,{8}4,{4}6/2,5/2,{8}5/2,5b,
,5h[8:1],2,3h[8:1],4,6h[8:1],5,4h[8:1],
,,{4}3/7,4/7,{8}4/7,4b,
,4h[8:1],7,6h[8:1],5,3h[8:1],4,{16}6,5,
{8}7,{16}3,4,{4}2,1/3,{8}7/8,7/8,
,5/8qq2[2:1],,8/4,3,2b,,5,
4,6,{4}4/5,{8}7/8,7,2/1,2,
3/5,4,,4/7h[4:1],5,4,,6/2h[4:1],
5,6,{4}8h[8:1]/E4,8h[8:1]/B2,8h[4:1]/C,
B7,{8}4,6,2v4b[4:1]/7>2b[4:1],3,{4}2/7,
,1h[8:1]/E6,1h[8:1]/B7,1h[4:1]/C,
B2,{8}4,6,7-2[4:1]/3-6[4:1],1,{4}7x/3x,
,4/5,5bpp5[4:1],3h[8:1]/5qq5[8:3],
{8}A5,1h[8:3],,,{4}7,6b/3b,
{8}B8/B1,B7/B2/B3/B6/B5/B4/E5/Ch[8:3],,,,,6,4,
5/1,7v1[4:1]/3v5[4:1],,3/7,C,A1f/A5f,,E2/B1,
B2/E3/A2,E4/B3/A3,{4}7h[4:1],{8}6,7,{4}7xh[4:1],
{8}8,7,6,4/3,1,6/5,3h[8:3],E8/B8,
B7/E7/A7,E6/B6/A6,2,1,8/3,4,{4}5/7bqq5[4:1],
7/2,{8}1,3,5v2[16:3]*-8[16:3],7,{4}5,
,7/8,2x/1x<5[4:1]*>5[4:1],1b,
{8},6,{4}2/C,6/7,3/2,
4q1[4:1],5/4,{2}4bx<2[4:1],
4bxpp2[4:1],{4}8x,{16}5,4,6,3,
{4}5,1h[8:1]/7h[8:1],{8}4,5,{4}8h[8:1]/6h[8:1],
C/B6/B7,1h[8:1]/7h[8:1],{8}4,5,{4}6h[8:1]/8h[8:1],
{8}4,3,{4}1h[8:1]/7h[8:1],5/6,1/8,
7-3b[4:1]/2-6b[4:1],{8}2/7,B6/B3/C/B5/B4,,8,,4,
{4}B2/B3/C,6h[8:1]/8h[8:1],4h[8:1]/3h[8:1],1v3[4:1],
1/8v6[4:1],{8}8,4,3,2b,6,5,
4,3,{4}5/2-6[4:1],2x/6x,7-3[4:1],
7x/3x,2h[4:1],8h[4:1],6h[4:1],
4,{8}6/5,4,2/1,3,7/8,6,
4/3,2,{4}1xh[8:3]/8xh[8:3],,B8/B7/B1/B2/B3/B4/B5/B6/Ch[4:1],
{16},,,,,,,,,,,,3,4,{8}3,
{16}6,5,{8}6,4,2/1,5b,7/6,4,3b,
5/2,4,{4}5v2b[8:1]*v8b[8:1],5x,3<6[8:1]/7>2[8:1],
3/7,{8}7h[8:1],5,2h[8:1],4,7,7b,
5/4,2,{4}6,1/B6,B3/8-5[8:1]*-3[8:1],
8,2h[4:3],{8},,3,4<6[8:1]*>2[8:1],
5,4bx,,8,{4}7h[2:1],{8}6,5>3[8:1]*<7[8:1],
4,5bx,,1,{4}1/8qq1[8:3],{8}4,3,
2,4b,,6-8[8:1]/2-4[8:1],5/1,2/6,{16},,,,3,
4,{8}3,5,6/5,4,1/2,5,3,
4/7,6bh[4:1],,4-2[8:1],2,4/7-5[8:1],5,7/1,
{4}3,{8}2bh[8:1],4,7bh[8:1],5,2,2,
4/5,7h[8:3],,,1,3,1-4b[8:1]*-6b[8:1],7,
{4}1,2h[4:3],{8},,3,4<6[8:1]*>2[8:1],
5,4bx,,7,{4}8h[4:1],{8}2,7p6b[4:1],
4,7,,1,{4}1,{8}6,3-6[8:1]/7-2[8:1],
,7/3,,5-2[0.3109##0.1554]*-7[0.3109##0.1554],4,5b,{16},,1x,8x,
{4}1x,8/E4,7/B4,6/B5,
1/B6,2/B7,3/E8,8/2,
{8}7,7-4[8:1],2,3,{4}3-8[8:1],3/6-3[8:1],
6/1q3[8:3]*-6[4:1],1b,,7h[4:1],
{8}4,5/2,{4}6/1,8/7,{8}7,4b/7,
,8/2b-4[8:1],,6/2,7-1[8:1],5,7/3,4,
{4}5,3/8,1/2,{8}2,5b/2,
,7h[4:1],,8,1h[8:1],6h[8:1],4b,{16}2,1,
{8}2,{16}7,8,{4}7,8/7,{8}7,4b/7,
,5/4,,5-1[16:3],4,3/5,,4,
2,8,1,1,5/3,4,7/5,6,
5/4,7h[4:1],,4,3,2,5/3,4,
5,6,{16}4bx,7bx,3bx,8bx,{2}Ch[8:9],
{4},,,B6/B5/B1/B2/B7/B3,
E
