&title=Coastal Highway
&artist=Glitch Droids
&first=-2.15
&des=HDou@KOM3
&lv_5=13+
&inote_5=(110)
{1},
{24}3,,,,,,3,,,,,,3,,,,,5,4,,6,2,,8,
1q5[12:2],,,,,,7,,7,,,6h[12:2],,,,,,,6,,,7,,,8p4[8:2],,,,,,3,,3,,,2h[12:2],,,,,,,3,,,
3,,4,2q4[8:2],,,,,5,,,6,,,7h[12:2],,,,,,,8,,,7,,,6p5[12:3],,,,,3,,,2,,,1,,,,1h[24:3],,,,,
5,2,,4,3qq4[12:4],,,,,4,3h,,5,,,6,,,,6,,5,7h,,,8,,,2,4,3,5,4,6,5h,,8,,,8h[12:3],,,,,,
5,7h,,4,5,,,6h[12:3],,,,,,1h,,,2,4,3,5,,5,,,5h[12:2],4h,,,3,,3,4pp8[12:4],,,,,,2h,
,,,,,2-6[8:1]*-6[8:1],,,,,,2,,,,,,
8b<6[12:1],,,,,1,8,,,2,,,2>4[12:1],,,,,,1/2,,,,,,
7<5[12:1],,,,,8,7,,,1,,,1>3[12:1],,,,,,8/1,,,,,,
6<8[12:1],,,,,5,6,,,4,,,4>2[12:1],,,,,,5/4,,,,,,
5<7[12:1],,,,,4,5,,,3,,,3>1[12:1],,,,,,4h[12:1]/3,,,,,,
1/7b<4[12:1],,,,,2,7,,,1,,,8-4[12:1],,,,,,8/2h[12:1],,,,,,
2/8<5[12:1],,,,,3,8,,,2,,,1-5[12:1],,,,,,1/3h[12:1],,,,,,
6/4>1[12:1],,,,,7,4,,,6,,,5-1[12:1],,,,,,5/7h[12:1],,,,,,
5/3>8[12:1],,,,,6,3,,,5,,,4h[24:3],,,,,5,3,,6,2,,7,
1bV35[8:1],,,,,8,1,,,7,,,6-1[12:1],,,5,,,6/4h[12:1],,,,,,
8V64[8:1]/2,,,,,1,8,,,2,,,3-8[12:1],,,4,,,3/5h[12:1],,,,,,
5V71[8:1]/2,,,,,4,5,,,3,,,2-5[12:1],,,1,,,2/8h[12:1],,,,,,
4V28[8:1]/6,,,,,5,4,,,6,,,7,,1,8,,,7h[12:1]/2h[12:1],,,,,4,
5bV71[8:1],,,,,3,5,,,2,,,3v8[12:1],,,4/7,,,3/6h[12:1],,,,,,
1V35[8:1]/8,,,,,7,1,,,6,,,7-3[12:1],,,8/3,,,7/2h[12:1],,,,,,
4V28[8:1]/5,,,,,6,4,,,7,,,6v1[12:1],,,5/2,,,6/3h[12:1],,,,,,
8V64[8:1]/1,,,,,2,8,,,3,,,2,,2,4,,4,5,,5,7,,7,
1b,,,,,7,7/5,,,6/4,,,5,,4/5,,,2,2/4,,,3/5,,,
2/7,,,,,6,6/1,,,7/2,,,8q5[10:1]*p3[10:1],,1/7,,,8,,,,,,,
8b/1b,,,,,2,2/4,,,3/5,,,4,,5/4,,,7,7/5,,,6/4,,,
7/2,,,,,3,3/8,,,2/7,,,8,,1,6,,2,5,,3,4,,,
5b-1[16:1]/4b,,,7,,4,5V31[12:1],,,3,,6,5V71[12:1],,,7,,4,5,,,3,,3,
4v1[12:1],,,2,,5,4v7[12:1],,,6,,3,4,,,2,,8,1,,6,2,,5,
3b,,3,2,,2,1,,1,8,,8,7,,7,6,,6,5,,5,4,,4,
3b,2,1,8,7,6,5/4,3,2,1/8,7,6,5s1[8:1]*s1[8:1]/4,,3,6,,4,5,,,2,,,
{48}2b/8b,3/7,4/6,5,
{24},,,1-5[12:1],7,2,6,6,,1,,,7,7-3[12:1],,3,3V51[8:1],,,1,,,2h[8:1],,,
,,,2-7[12:1],,,6-3[12:1],,,2>5[12:1],,,6<1[12:1],,,2-6[12:1]*-6[12:1],,,6,,,2b,,,,
,8-4[12:1],2,7,3,3,,8,,,1,1,,5,5,,,3h[8:1],,,
{48}8h,7,6,,,,2,,8,,1,,7h,6,5,,,,3,,1,,2,,8h,7,6,,,,2,,8,,1,,7-3[16:1]*-3[16:1],6,5,,,,
{24}1,,,7b,,,,,
8-4[12:1],2,7,3,3,,8,,,2,2-6[12:1],,6,6V48[8:1],,,8,,,7h[8:1],,,
,,,7-2[12:1],,,3-6[12:1],,,7<4[12:1],,,3>8[12:1],,,7-3[12:1]*-3[12:1],,,3,,,7b,,,,
,1-5[12:1],7,2,6,6,,1,,,8,8,,4,4,,,6h[8:1],,,
{48}1h,2,3,,,,7,,1,,8,,2h,3,4,,,,6,,8,,7,,1h,2,3,,,,7,,1,,8,,2-6[16:1]*-6[16:1],3,4,,,,
{24}6,,,2b,,,
8,,,7/1,,3,5<8[12:1],,6,1v3[16:1],,,5,,,1b,,,6<1[12:1],6,5,7,,,6/5,,,
4-2[16:1],,2,7-1[16:1],,6,4-8[12:1],,,7-5[16:1],,,4V68[12:1]*V28[12:1],,,7,,,4b,,,,,,
4/6,,5,3>8[12:1],,4,7v4[12:1],,,3,,,7bV13[10:1],,,1,,,7b-5[16:1]/4h[8:1],,,,,,7b,,3,3,,7,1bV35[12:1],,6,6,,,7-3[16:1]*-3[16:1]/1b,,8,8,,1,7b,,,
1,,,2/8,,6,4>1[12:1],,2,8v6[12:1],,,4,,,8b,,,3>8[12:1],3,4,2,,,3/4,,,
5-7[16:1],,7,2-8[16:1],,3,5-1[12:1],,,2-4[16:1],,,5V31[12:1]*V71[12:1],,,2,,,5b,,,,,,
5/3,,1,6<1[12:1],,5,2v5[12:1],,,6,,,2b,,,8,,,1/2,,,3/4,,,5/6,,7,8,,1,1/8,,,3/7,,5,4/5>5[8:14]*p4[8:8],,,,,,{1}5b,,
{8}
3h[8:11],,5h,,,,5h,,,,5h,,6,6,5h[12:1]/6h[12:1],,
7h[8:11],,5h,,,,5h,,,,5h,,4,4h[12:1]/5h[12:1],{24},,4h[24:3],,,5,{8}
4p2[12:4],,7,,8p6[12:4],,3,,2pp1[12:4],,5,,6pp5[12:4],,4,,{24}
3h[24:5],,,,,4,3,,5,4,,6,5,,,7,,,6/4,,6h[12:2]/4,,,,{48}2,3,4-8[38.8#32:1]*-8[38.8#32:1],,{24},,,,,,,,,,
4w8[12:1]/5,,2,6,,3,4,,,,,,
{48}8b,1/7,2/6,3/5,4,,{24},,,
1v4[12:1]/8,,3,4V28[12:1],,7,1b,,,,,,
7<5[16:1],,2,1-5[12:1],,4,7b-3[12:1],,,1>3[16:1],,,7V53[8:1],,,1s5[6:1]*s5[6:1],,,7,,,,,,,,,,,,
{48}1b,8/2,7/3,6/4,5,,{24},,,
8v5[12:1]/1,,4,5<1[12:1],,2h,8b,,,,,,
2-4[16:1],,4,8-6[16:1],,6,2b-6[12:1],,,8-4[12:1],,,2>6[8:1],,,8s4[6:1]*z4[6:1],,,2,,,,,,,,,,,,
3/5<8[12:1],,2,8,,,4/5b,,2,2,,7,1w5[12:1],,6,4,,,1b,,,,,,
6/4>1[12:1],,7,1,,,5/4b,,7,7,,2,8w4[12:1],,3,5,,,8b,,,,,
2,8bV24[12:1]/2,,,6/4,,7,8b,,5,5,,
7,1bV75[12:1]/7,,,3/5,,2,1b,,4,4,,
2p8[24:19]/6,2b/6bp4[24:18]*p4[24:18],E
